  0
SECTION
  2
HEADER
  9
$ACADVER
  1
AC1018
  9
$ACADMAINTVER
 70
     0
  9
$DWGCODEPAGE
  3
ANSI_1252
  9
$INSBASE
 10
0.0
 20
0.0
 30
0.0
  9
$EXTMIN
 10
-31.30831238239472
 20
719.9153154261693
 30
0.0
  9
$EXTMAX
 10
265.6916876176034
 20
929.9153154261694
 30
0.0
  9
$LIMMIN
 10
0.0
 20
0.0
  9
$LIMMAX
 10
12.0
 20
9.0
  9
$ORTHOMODE
 70
     0
  9
$REGENMODE
 70
     1
  9
$FILLMODE
 70
     1
  9
$QTEXTMODE
 70
     0
  9
$MIRRTEXT
 70
     1
  9
$LTSCALE
 40
1.0
  9
$ATTMODE
 70
     1
  9
$TEXTSIZE
 40
0.2
  9
$TRACEWID
 40
0.05
  9
$TEXTSTYLE
  7
Standard
  9
$CLAYER
  8
0
  9
$CELTYPE
  6
ByLayer
  9
$CECOLOR
 62
   256
  9
$CELTSCALE
 40
1.0
  9
$DISPSILH
 70
     0
  9
$DIMSCALE
 40
1.0
  9
$DIMASZ
 40
0.18
  9
$DIMEXO
 40
0.0625
  9
$DIMDLI
 40
0.38
  9
$DIMRND
 40
0.0
  9
$DIMDLE
 40
0.0
  9
$DIMEXE
 40
0.18
  9
$DIMTP
 40
0.0
  9
$DIMTM
 40
0.0
  9
$DIMTXT
 40
0.18
  9
$DIMCEN
 40
0.09
  9
$DIMTSZ
 40
0.0
  9
$DIMTOL
 70
     0
  9
$DIMLIM
 70
     0
  9
$DIMTIH
 70
     1
  9
$DIMTOH
 70
     1
  9
$DIMSE1
 70
     0
  9
$DIMSE2
 70
     0
  9
$DIMTAD
 70
     0
  9
$DIMZIN
 70
     0
  9
$DIMBLK
  1

  9
$DIMASO
 70
     1
  9
$DIMSHO
 70
     1
  9
$DIMPOST
  1

  9
$DIMAPOST
  1

  9
$DIMALT
 70
     0
  9
$DIMALTD
 70
     2
  9
$DIMALTF
 40
25.4
  9
$DIMLFAC
 40
1.0
  9
$DIMTOFL
 70
     0
  9
$DIMTVP
 40
0.0
  9
$DIMTIX
 70
     0
  9
$DIMSOXD
 70
     0
  9
$DIMSAH
 70
     0
  9
$DIMBLK1
  1

  9
$DIMBLK2
  1

  9
$DIMSTYLE
  2
Standard
  9
$DIMCLRD
 70
     0
  9
$DIMCLRE
 70
     0
  9
$DIMCLRT
 70
     0
  9
$DIMTFAC
 40
1.0
  9
$DIMGAP
 40
0.09
  9
$DIMJUST
 70
     0
  9
$DIMSD1
 70
     0
  9
$DIMSD2
 70
     0
  9
$DIMTOLJ
 70
     1
  9
$DIMTZIN
 70
     0
  9
$DIMALTZ
 70
     0
  9
$DIMALTTZ
 70
     0
  9
$DIMUPT
 70
     0
  9
$DIMDEC
 70
     4
  9
$DIMTDEC
 70
     4
  9
$DIMALTU
 70
     2
  9
$DIMALTTD
 70
     2
  9
$DIMTXSTY
  7
Standard
  9
$DIMAUNIT
 70
     0
  9
$DIMADEC
 70
     0
  9
$DIMALTRND
 40
0.0
  9
$DIMAZIN
 70
     0
  9
$DIMDSEP
 70
    46
  9
$DIMATFIT
 70
     3
  9
$DIMFRAC
 70
     0
  9
$DIMLDRBLK
  1

  9
$DIMLUNIT
 70
     2
  9
$DIMLWD
 70
    -2
  9
$DIMLWE
 70
    -2
  9
$DIMTMOVE
 70
     0
  9
$LUNITS
 70
     2
  9
$LUPREC
 70
     4
  9
$SKETCHINC
 40
0.1
  9
$FILLETRAD
 40
0.5
  9
$AUNITS
 70
     0
  9
$AUPREC
 70
     0
  9
$MENU
  1
.
  9
$ELEVATION
 40
0.0
  9
$PELEVATION
 40
0.0
  9
$THICKNESS
 40
0.0
  9
$LIMCHECK
 70
     0
  9
$CHAMFERA
 40
0.5
  9
$CHAMFERB
 40
0.5
  9
$CHAMFERC
 40
1.0
  9
$CHAMFERD
 40
0.0
  9
$SKPOLY
 70
     0
  9
$TDCREATE
 40
2458209.442018507
  9
$TDUCREATE
 40
2458209.358685174
  9
$TDUPDATE
 40
2458209.442019051
  9
$TDUUPDATE
 40
2458209.358685717
  9
$TDINDWG
 40
0.0000000116
  9
$TDUSRTIMER
 40
0.0000000116
  9
$USRTIMER
 70
     1
  9
$ANGBASE
 50
0.0
  9
$ANGDIR
 70
     0
  9
$PDMODE
 70
     0
  9
$PDSIZE
 40
0.0
  9
$PLINEWID
 40
0.0
  9
$SPLFRAME
 70
     0
  9
$SPLINETYPE
 70
     6
  9
$SPLINESEGS
 70
     8
  9
$HANDSEED
  5
46F
  9
$SURFTAB1
 70
     6
  9
$SURFTAB2
 70
     6
  9
$SURFTYPE
 70
     6
  9
$SURFU
 70
     6
  9
$SURFV
 70
     6
  9
$UCSBASE
  2

  9
$UCSNAME
  2

  9
$UCSORG
 10
0.0
 20
0.0
 30
0.0
  9
$UCSXDIR
 10
1.0
 20
0.0
 30
0.0
  9
$UCSYDIR
 10
0.0
 20
1.0
 30
0.0
  9
$UCSORTHOREF
  2

  9
$UCSORTHOVIEW
 70
     0
  9
$UCSORGTOP
 10
0.0
 20
0.0
 30
0.0
  9
$UCSORGBOTTOM
 10
0.0
 20
0.0
 30
0.0
  9
$UCSORGLEFT
 10
0.0
 20
0.0
 30
0.0
  9
$UCSORGRIGHT
 10
0.0
 20
0.0
 30
0.0
  9
$UCSORGFRONT
 10
0.0
 20
0.0
 30
0.0
  9
$UCSORGBACK
 10
0.0
 20
0.0
 30
0.0
  9
$PUCSBASE
  2

  9
$PUCSNAME
  2

  9
$PUCSORG
 10
0.0
 20
0.0
 30
0.0
  9
$PUCSXDIR
 10
1.0
 20
0.0
 30
0.0
  9
$PUCSYDIR
 10
0.0
 20
1.0
 30
0.0
  9
$PUCSORTHOREF
  2

  9
$PUCSORTHOVIEW
 70
     0
  9
$PUCSORGTOP
 10
0.0
 20
0.0
 30
0.0
  9
$PUCSORGBOTTOM
 10
0.0
 20
0.0
 30
0.0
  9
$PUCSORGLEFT
 10
0.0
 20
0.0
 30
0.0
  9
$PUCSORGRIGHT
 10
0.0
 20
0.0
 30
0.0
  9
$PUCSORGFRONT
 10
0.0
 20
0.0
 30
0.0
  9
$PUCSORGBACK
 10
0.0
 20
0.0
 30
0.0
  9
$USERI1
 70
     0
  9
$USERI2
 70
     0
  9
$USERI3
 70
     0
  9
$USERI4
 70
     0
  9
$USERI5
 70
     0
  9
$USERR1
 40
18.1
  9
$USERR2
 40
0.0
  9
$USERR3
 40
0.0
  9
$USERR4
 40
0.0
  9
$USERR5
 40
0.0
  9
$WORLDVIEW
 70
     1
  9
$SHADEDGE
 70
     3
  9
$SHADEDIF
 70
    70
  9
$TILEMODE
 70
     1
  9
$MAXACTVP
 70
    64
  9
$PINSBASE
 10
0.0
 20
0.0
 30
0.0
  9
$PLIMCHECK
 70
     0
  9
$PEXTMIN
 10
1.00000000000000E+20
 20
1.00000000000000E+20
 30
1.00000000000000E+20
  9
$PEXTMAX
 10
-1.00000000000000E+20
 20
-1.00000000000000E+20
 30
-1.00000000000000E+20
  9
$PLIMMIN
 10
0.0
 20
0.0
  9
$PLIMMAX
 10
12.0
 20
9.0
  9
$UNITMODE
 70
     0
  9
$VISRETAIN
 70
     1
  9
$PLINEGEN
 70
     0
  9
$PSLTSCALE
 70
     1
  9
$TREEDEPTH
 70
  3020
  9
$CMLSTYLE
  2
Standard
  9
$CMLJUST
 70
     0
  9
$CMLSCALE
 40
1.0
  9
$PROXYGRAPHICS
 70
     1
  9
$MEASUREMENT
 70
     1
  9
$CELWEIGHT
370
    -1
  9
$ENDCAPS
280
     0
  9
$JOINSTYLE
280
     0
  9
$LWDISPLAY
290
     0
  9
$INSUNITS
 70
     4
  9
$HYPERLINKBASE
  1

  9
$STYLESHEET
  1

  9
$XEDIT
290
     1
  9
$CEPSNTYPE
380
     0
  9
$PSTYLEMODE
290
     1
  9
$FINGERPRINTGUID
  2
{28F6F2F6-8F25-4A0C-9292-FEA9352DF02B}
  9
$VERSIONGUID
  2
{FAEB1C32-E019-11D5-929B-00C0DF256EC4}
  9
$EXTNAMES
290
     1
  9
$PSVPSCALE
 40
0.0
  9
$OLESTARTUP
290
     0
  9
$SORTENTS
280
   127
  9
$INDEXCTL
280
     0
  9
$HIDETEXT
280
     1
  9
$XCLIPFRAME
290
     0
  9
$HALOGAP
280
     0
  9
$OBSCOLOR
 70
   257
  9
$OBSLTYPE
280
     0
  9
$INTERSECTIONDISPLAY
280
     0
  9
$INTERSECTIONCOLOR
 70
   257
  9
$DIMASSOC
280
     2
  9
$PROJECTNAME
  1

  0
ENDSEC
  0
SECTION
  2
CLASSES
  0
CLASS
  1
ACDBDICTIONARYWDFLT
  2
AcDbDictionaryWithDefault
  3
ObjectDBX Classes
 90
        0
 91
        4
280
     0
281
     0
  0
CLASS
  1
VISUALSTYLE
  2
AcDbVisualStyle
  3
ObjectDBX Classes
 90
     4095
 91
        4
280
     0
281
     0
  0
CLASS
  1
MATERIAL
  2
AcDbMaterial
  3
ObjectDBX Classes
 90
     1153
 91
        4
280
     0
281
     0
  0
ENDSEC
  0
SECTION
  2
TABLES
  0
TABLE
  2
VPORT
  5
8
330
0
100
AcDbSymbolTable
 70
     1
  0
VPORT
  5
29
330
8
100
AcDbSymbolTableRecord
100
AcDbViewportTableRecord
  2
*Active
 70
     0
 10
0.0
 20
0.0
 11
1.0
 21
1.0
 12
117.1916876176043
 22
824.9153154261694
 13
0.0
 23
0.0
 14
0.5
 24
0.5
 15
0.5
 25
0.5
 16
0.0
 26
0.0
 36
1.0
 17
0.0
 27
0.0
 37
0.0
 40
231.0000000000001
 41
1.60267857142857
 42
50.0
 43
0.0
 44
0.0
 50
0.0
 51
0.0
 71
     0
 72
   100
 73
     1
 74
     3
 75
     0
 76
     0
 77
     0
 78
     0
281
     0
 65
     1
110
0.0
120
0.0
130
0.0
111
1.0
121
0.0
131
0.0
112
0.0
122
1.0
132
0.0
 79
     0
146
0.0
  0
ENDTAB
  0
TABLE
  2
LTYPE
  5
5
330
0
100
AcDbSymbolTable
 70
     8
  0
LTYPE
  5
14
330
5
100
AcDbSymbolTableRecord
100
AcDbLinetypeTableRecord
  2
ByBlock
 70
     0
  3

 72
    65
 73
     0
 40
0.0
  0
LTYPE
  5
15
330
5
100
AcDbSymbolTableRecord
100
AcDbLinetypeTableRecord
  2
ByLayer
 70
     0
  3

 72
    65
 73
     0
 40
0.0
  0
LTYPE
  5
16
330
5
100
AcDbSymbolTableRecord
100
AcDbLinetypeTableRecord
  2
Continuous
 70
     0
  3
Solid line
 72
    65
 73
     0
 40
0.0
  0
LTYPE
  5
3F
330
5
100
AcDbSymbolTableRecord
100
AcDbLinetypeTableRecord
  2
DASHED
 70
     0
  3
Dashed
 72
    65
 73
     2
 40
15.0
 49
7.0
 74
     0
 49
-8.0
 74
     0
  0
LTYPE
  5
40
330
5
100
AcDbSymbolTableRecord
100
AcDbLinetypeTableRecord
  2
DOTTED
 70
     0
  3
Dotted
 72
    65
 73
     2
 40
1.0
 49
0.0
 74
     0
 49
-1.0
 74
     0
  0
LTYPE
  5
41
330
5
100
AcDbSymbolTableRecord
100
AcDbLinetypeTableRecord
  2
DOT_CENTER
 70
     0
  3
Dot_Center
 72
    65
 73
     4
 40
14.0
 49
12.0
 74
     0
 49
-1.0
 74
     0
 49
0.0
 74
     0
 49
-1.0
 74
     0
  0
LTYPE
  5
42
330
5
100
AcDbSymbolTableRecord
100
AcDbLinetypeTableRecord
  2
LONG_DASHED
 70
     0
  3
Long_Dashed
 72
    65
 73
     2
 40
15.0
 49
10.0
 74
     0
 49
-5.0
 74
     0
  0
LTYPE
  5
43
330
5
100
AcDbSymbolTableRecord
100
AcDbLinetypeTableRecord
  2
DASH_CENTER
 70
     0
  3
Dash_Center
 72
    65
 73
     4
 40
14.0
 49
11.0
 74
     0
 49
-1.0
 74
     0
 49
1.0
 74
     0
 49
-1.0
 74
     0
  0
LTYPE
  5
44
330
5
100
AcDbSymbolTableRecord
100
AcDbLinetypeTableRecord
  2
PHANTOM
 70
     0
  3
Phantom
 72
    65
 73
     6
 40
13.0
 49
10.0
 74
     0
 49
-1.0
 74
     0
 49
0.0
 74
     0
 49
-1.0
 74
     0
 49
0.0
 74
     0
 49
-1.0
 74
     0
  0
LTYPE
  5
45
330
5
100
AcDbSymbolTableRecord
100
AcDbLinetypeTableRecord
  2
CENTER_DASH_DASH
 70
     0
  3
Center_Dash_Dash
 72
    65
 73
     6
 40
14.0
 49
9.0
 74
     0
 49
-1.0
 74
     0
 49
1.0
 74
     0
 49
-1.0
 74
     0
 49
1.0
 74
     0
 49
-1.0
 74
     0
  0
ENDTAB
  0
TABLE
  2
LAYER
  5
2
330
0
100
AcDbSymbolTable
 70
     2
  0
LAYER
  5
10
330
2
100
AcDbSymbolTableRecord
100
AcDbLayerTableRecord
  2
0
 70
     0
 62
     7
  6
Continuous
370
    -3
390
F
  0
LAYER
  5
46
330
2
100
AcDbSymbolTableRecord
100
AcDbLayerTableRecord
  2
1
 70
     0
 62
     7
  6
Continuous
370
    -3
390
F
  0
ENDTAB
  0
TABLE
  2
STYLE
  5
3
330
0
100
AcDbSymbolTable
 70
     5
  0
STYLE
  5
11
330
3
100
AcDbSymbolTableRecord
100
AcDbTextStyleTableRecord
  2
Standard
 70
     0
 40
0.0
 41
1.0
 50
0.0
 71
     0
 42
0.2
  3
txt
  4

  0
STYLE
  5
154
330
3
100
AcDbSymbolTableRecord
100
AcDbTextStyleTableRecord
  2
CONVERTER_11
 70
     0
 40
0.0
 41
0.9
 50
0.0
 71
     0
 42
0.2
  3
txt.shx
  4

  0
STYLE
  5
40A
330
3
100
AcDbSymbolTableRecord
100
AcDbTextStyleTableRecord
  2
CONVERTER_12
 70
     0
 40
0.0
 41
0.81
 50
0.0
 71
     0
 42
0.2
  3
txt.shx
  4

  0
STYLE
  5
420
330
3
100
AcDbSymbolTableRecord
100
AcDbTextStyleTableRecord
  2
CONVERTER_13
 70
     0
 40
0.0
 41
0.72
 50
0.0
 71
     0
 42
0.2
  3
txt.shx
  4

  0
STYLE
  5
423
330
3
100
AcDbSymbolTableRecord
100
AcDbTextStyleTableRecord
  2
CONVERTER_14
 70
     0
 40
0.0
 41
0.855
 50
0.0
 71
     0
 42
0.2
  3
txt.shx
  4

  0
ENDTAB
  0
TABLE
  2
VIEW
  5
6
330
0
100
AcDbSymbolTable
 70
     0
  0
ENDTAB
  0
TABLE
  2
UCS
  5
7
330
0
100
AcDbSymbolTable
 70
     0
  0
ENDTAB
  0
TABLE
  2
APPID
  5
9
330
0
100
AcDbSymbolTable
 70
     1
  0
APPID
  5
12
330
9
100
AcDbSymbolTableRecord
100
AcDbRegAppTableRecord
  2
ACAD
 70
     0
  0
ENDTAB
  0
TABLE
  2
DIMSTYLE
  5
A
330
0
100
AcDbSymbolTable
 70
     7
100
AcDbDimStyleTable
  0
DIMSTYLE
105
27
330
A
100
AcDbSymbolTableRecord
100
AcDbDimStyleTableRecord
  2
Standard
 70
     0
178
     0
340
11
  0
DIMSTYLE
105
1D4
102
{ACAD_REACTORS
330
1D5
102
}
330
A
100
AcDbSymbolTableRecord
100
AcDbDimStyleTableRecord
  2
ME10_DIM_10
 70
     0
 41
3.5
 42
0.0
 44
1.5
 73
     0
 74
     0
 77
     1
 78
     8
140
3.5
147
1.5
172
     1
173
     1
174
     1
175
     1
176
     2
177
     2
178
     3
340
154
  0
DIMSTYLE
105
2E0
102
{ACAD_REACTORS
330
2E1
102
}
330
A
100
AcDbSymbolTableRecord
100
AcDbDimStyleTableRecord
  2
ME10_DIM_11
 70
     0
 41
3.5
 42
0.0
 44
2.0
 73
     0
 74
     0
 77
     1
 78
     8
140
3.5
147
2.0
172
     1
173
     1
174
     1
175
     1
176
     2
177
     2
178
     3
340
154
  0
DIMSTYLE
105
2EB
102
{ACAD_REACTORS
330
2EC
102
}
330
A
100
AcDbSymbolTableRecord
100
AcDbDimStyleTableRecord
  2
ME10_DIM_12
 70
     0
 41
3.5
 42
0.0
 44
2.0
 73
     0
 74
     0
 77
     1
 78
     8
140
3.5
147
2.0
172
     1
173
     1
174
     1
175
     1
176
     2
177
     2
271
     1
178
     3
271
     1
340
154
  0
DIMSTYLE
105
2F6
102
{ACAD_REACTORS
330
2F7
102
}
330
A
100
AcDbSymbolTableRecord
100
AcDbDimStyleTableRecord
  2
ME10_DIM_13
 70
     0
 41
3.5
 42
0.0
 44
1.5
 73
     0
 74
     0
 77
     1
 78
     8
140
3.5
147
1.5
172
     1
173
     1
174
     1
175
     1
176
     2
177
     2
271
     1
178
     3
271
     1
340
154
  0
DIMSTYLE
105
301
102
{ACAD_REACTORS
330
302
102
}
330
A
100
AcDbSymbolTableRecord
100
AcDbDimStyleTableRecord
  2
ME10_DIM_14
 70
     0
 41
3.5
 42
0.0
 44
1.5
 73
     0
 74
     0
 77
     1
 78
     8
140
3.5
147
1.5
172
     1
173
     1
174
     1
175
     1
176
     2
177
     2
271
     1
178
     3
271
     1
340
154
  0
DIMSTYLE
105
30C
102
{ACAD_REACTORS
330
30D
102
}
330
A
100
AcDbSymbolTableRecord
100
AcDbDimStyleTableRecord
  2
ME10_DIM_15
 70
     0
 41
3.5
 42
0.0
 44
1.5
 73
     0
 74
     0
 77
     1
 78
     8
140
3.5
147
1.5
172
     1
173
     1
174
     1
175
     1
176
     2
177
     2
271
     1
178
     3
271
     1
340
154
  0
ENDTAB
  0
TABLE
  2
BLOCK_RECORD
  5
1
330
0
100
AcDbSymbolTable
 70
    23
  0
BLOCK_RECORD
  5
1F
330
1
100
AcDbSymbolTableRecord
100
AcDbBlockTableRecord
  2
*Model_Space
340
22
  0
BLOCK_RECORD
  5
1B
330
1
100
AcDbSymbolTableRecord
100
AcDbBlockTableRecord
  2
*Paper_Space
340
1E
  0
BLOCK_RECORD
  5
23
330
1
100
AcDbSymbolTableRecord
100
AcDbBlockTableRecord
  2
*Paper_Space0
340
26
  0
BLOCK_RECORD
  5
47
330
1
100
AcDbSymbolTableRecord
100
AcDbBlockTableRecord
  2
STN-16-Select__1
340
0
102
{BLKREFS
331
4B
102
}
  0
BLOCK_RECORD
  5
4A
330
1
100
AcDbSymbolTableRecord
100
AcDbBlockTableRecord
  2
AllgSicht1
340
0
102
{BLKREFS
331
7D
102
}
  0
BLOCK_RECORD
  5
4E
330
1
100
AcDbSymbolTableRecord
100
AcDbBlockTableRecord
  2
STN-16-Select__2
340
0
102
{BLKREFS
331
52
102
}
  0
BLOCK_RECORD
  5
51
330
1
100
AcDbSymbolTableRecord
100
AcDbBlockTableRecord
  2
Drfsicht1
340
0
102
{BLKREFS
331
7E
102
}
  0
BLOCK_RECORD
  5
55
330
1
100
AcDbSymbolTableRecord
100
AcDbBlockTableRecord
  2
STN-16-Select__3
340
0
102
{BLKREFS
331
59
102
}
  0
BLOCK_RECORD
  5
58
330
1
100
AcDbSymbolTableRecord
100
AcDbBlockTableRecord
  2
Rckans1
340
0
102
{BLKREFS
331
7F
102
}
  0
BLOCK_RECORD
  5
5C
330
1
100
AcDbSymbolTableRecord
100
AcDbBlockTableRecord
  2
STN-16-Select__4
340
0
102
{BLKREFS
331
60
102
}
  0
BLOCK_RECORD
  5
5F
330
1
100
AcDbSymbolTableRecord
100
AcDbBlockTableRecord
  2
SA_Links1
340
0
102
{BLKREFS
331
80
102
}
  0
BLOCK_RECORD
  5
63
330
1
100
AcDbSymbolTableRecord
100
AcDbBlockTableRecord
  2
STN-16-Select__5
340
0
102
{BLKREFS
331
67
102
}
  0
BLOCK_RECORD
  5
66
330
1
100
AcDbSymbolTableRecord
100
AcDbBlockTableRecord
  2
SA_Rechts1
340
0
102
{BLKREFS
331
81
102
}
  0
BLOCK_RECORD
  5
6A
330
1
100
AcDbSymbolTableRecord
100
AcDbBlockTableRecord
  2
STN-16-Select__6
340
0
102
{BLKREFS
331
6E
102
}
  0
BLOCK_RECORD
  5
6D
330
1
100
AcDbSymbolTableRecord
100
AcDbBlockTableRecord
  2
Vordans1
340
0
102
{BLKREFS
331
82
102
}
  0
BLOCK_RECORD
  5
71
330
1
100
AcDbSymbolTableRecord
100
AcDbBlockTableRecord
  2
_rahmen
340
0
102
{BLKREFS
331
78
102
}
  0
BLOCK_RECORD
  5
74
330
1
100
AcDbSymbolTableRecord
100
AcDbBlockTableRecord
  2
_punkt
340
0
102
{BLKREFS
331
79
102
}
  0
BLOCK_RECORD
  5
77
330
1
100
AcDbSymbolTableRecord
100
AcDbBlockTableRecord
  2
A4I_CS
340
0
102
{BLKREFS
331
83
102
}
  0
BLOCK_RECORD
  5
7C
330
1
100
AcDbSymbolTableRecord
100
AcDbBlockTableRecord
  2
1
340
0
102
{BLKREFS
331
86
102
}
  0
BLOCK_RECORD
  5
1CB
330
1
100
AcDbSymbolTableRecord
100
AcDbBlockTableRecord
  2
*D17
340
0
  0
BLOCK_RECORD
  5
2D7
330
1
100
AcDbSymbolTableRecord
100
AcDbBlockTableRecord
  2
*D18
340
0
  0
BLOCK_RECORD
  5
2E2
330
1
100
AcDbSymbolTableRecord
100
AcDbBlockTableRecord
  2
*D19
340
0
  0
BLOCK_RECORD
  5
2ED
330
1
100
AcDbSymbolTableRecord
100
AcDbBlockTableRecord
  2
*D20
340
0
  0
BLOCK_RECORD
  5
2F8
330
1
100
AcDbSymbolTableRecord
100
AcDbBlockTableRecord
  2
*D21
340
0
  0
BLOCK_RECORD
  5
303
330
1
100
AcDbSymbolTableRecord
100
AcDbBlockTableRecord
  2
*D22
340
0
  0
ENDTAB
  0
ENDSEC
  0
SECTION
  2
BLOCKS
  0
BLOCK
  5
20
330
1F
100
AcDbEntity
  8
0
100
AcDbBlockBegin
  2
*Model_Space
 70
     0
 10
0.0
 20
0.0
 30
0.0
  3
*Model_Space
  1

  0
ENDBLK
  5
21
330
1F
100
AcDbEntity
  8
0
100
AcDbBlockEnd
  0
BLOCK
  5
1C
330
1B
100
AcDbEntity
 67
     1
  8
0
100
AcDbBlockBegin
  2
*Paper_Space
 70
     0
 10
0.0
 20
0.0
 30
0.0
  3
*Paper_Space
  1

  0
ENDBLK
  5
1D
330
1B
100
AcDbEntity
 67
     1
  8
0
100
AcDbBlockEnd
  0
BLOCK
  5
24
330
23
100
AcDbEntity
  8
0
100
AcDbBlockBegin
  2
*Paper_Space0
 70
     0
 10
0.0
 20
0.0
 30
0.0
  3
*Paper_Space0
  1

  0
ENDBLK
  5
25
330
23
100
AcDbEntity
  8
0
100
AcDbBlockEnd
  0
BLOCK
  5
48
330
47
100
AcDbEntity
  8
0
100
AcDbBlockBegin
  2
STN-16-Select__1
 70
     0
 10
166.4231413319554
 20
772.9576856506031
 30
0.0
  3
STN-16-Select__1
  1

  0
LINE
  5
87
330
47
100
AcDbEntity
  8
0
  6
Continuous
 62
     7
100
AcDbLine
 10
232.7404452037382
 20
811.1602613277979
 30
0.0
 11
234.3151322383705
 21
810.705688336131
 31
0.0
  0
LINE
  5
88
330
47
100
AcDbEntity
  8
0
  6
Continuous
 62
     7
100
AcDbLine
 10
217.2130770008486
 20
782.8927505514574
 30
0.0
 11
214.1344044714673
 21
783.7814867582503
 31
0.0
  0
LINE
  5
89
330
47
100
AcDbEntity
  8
0
  6
Continuous
 62
     7
100
AcDbLine
 10
217.2301120065578
 20
808.0170029035503
 30
0.0
 11
215.1453652258263
 21
806.211559230979
 31
0.0
  0
LINE
  5
8A
330
47
100
AcDbEntity
  8
0
  6
Continuous
 62
     7
100
AcDbLine
 10
221.7785109127681
 20
811.3470151888883
 30
0.0
 11
221.3158723512773
 21
811.4805674378955
 31
0.0
  0
LINE
  5
8B
330
47
100
AcDbEntity
  8
0
  6
Continuous
 62
     7
100
AcDbLine
 10
221.3158723512773
 20
811.4805674378955
 30
0.0
 11
221.3158723512773
 21
810.5539206888589
 31
0.0
  0
LINE
  5
8C
330
47
100
AcDbEntity
  8
0
  6
Continuous
 62
     7
100
AcDbLine
 10
226.7934834632266
 20
809.8993173128955
 30
0.0
 11
226.3308445369471
 21
810.032869667208
 31
0.0
  0
LINE
  5
8D
330
47
100
AcDbEntity
  8
0
  6
Continuous
 62
     7
100
AcDbLine
 10
221.3158723512773
 20
810.5539206888589
 30
0.0
 11
226.7934834632267
 21
808.9726701308462
 31
0.0
  0
LINE
  5
8E
330
47
100
AcDbEntity
  8
0
  6
Continuous
 62
     7
100
AcDbLine
 10
226.7934834632267
 20
808.9726701308462
 30
0.0
 11
226.7934834632266
 21
809.8993173128955
 31
0.0
  0
LINE
  5
8F
330
47
100
AcDbEntity
  8
0
  6
Continuous
 62
     7
100
AcDbLine
 10
227.1377280368262
 20
811.6229259392437
 30
0.0
 11
233.3151322535871
 21
809.8396629455244
 31
0.0
  0
LINE
  5
90
330
47
100
AcDbEntity
  8
0
  6
Continuous
 62
     7
100
AcDbLine
 10
238.3151322383705
 20
814.1697899512687
 30
0.0
 11
239.3151322557052
 21
815.0358153700654
 31
0.0
  0
LINE
  5
91
330
47
100
AcDbEntity
  8
0
  6
Continuous
 62
     7
100
AcDbLine
 10
233.1377280389443
 20
816.8190783637848
 30
0.0
 11
239.3151322557052
 21
815.0358153700654
 31
0.0
  0
LINE
  5
92
330
47
100
AcDbEntity
  8
0
  6
Continuous
 62
     7
100
AcDbLine
 10
217.9924998642545
 20
814.2629259128618
 30
0.0
 11
220.9716273177654
 21
813.4029258942444
 31
0.0
  0
LINE
  5
93
330
47
100
AcDbEntity
  8
0
  6
Continuous
 62
     7
100
AcDbLine
 10
210.0139351249229
 20
781.4119318912975
 30
0.0
 11
210.0139351249229
 21
780.3377257381351
 31
0.0
  0
LINE
  5
94
330
47
100
AcDbEntity
  8
0
  6
Continuous
 62
     7
100
AcDbLine
 10
254.4221617848809
 20
780.1500908672035
 30
0.0
 11
254.4221617848809
 21
778.1538380751441
 31
0.0
  0
LINE
  5
95
330
47
100
AcDbEntity
  8
0
  6
Continuous
 62
     7
100
AcDbLine
 10
207.3292568062046
 20
780.2133147683551
 30
0.0
 11
209.1479105871638
 21
781.7883151433543
 31
0.0
  0
LINE
  5
96
330
47
100
AcDbEntity
  8
0
  6
Continuous
 62
     7
100
AcDbLine
 10
210.8941197128163
 20
775.8142666980137
 30
0.0
 11
207.3292568062037
 21
776.0856191064098
 31
0.0
  0
LINE
  5
97
330
47
100
AcDbEntity
  8
0
  6
Continuous
 62
     7
100
AcDbLine
 10
248.4221617827627
 20
772.9576856506031
 30
0.0
 11
217.2130770008486
 21
775.3332769016295
 31
0.0
  0
LINE
  5
98
330
47
100
AcDbEntity
  8
0
  6
Continuous
 62
     7
100
AcDbLine
 10
210.8941197128163
 20
775.8142666980137
 30
0.0
 11
216.8941197149345
 21
781.0104191225547
 31
0.0
  0
LINE
  5
99
330
47
100
AcDbEntity
  8
0
  6
Continuous
 62
     7
100
AcDbLine
 10
248.4221617827627
 20
774.9539384426624
 30
0.0
 11
254.4221617848809
 21
780.1500908672035
 31
0.0
  0
LINE
  5
9A
330
47
100
AcDbEntity
  8
0
  6
Continuous
 62
     7
100
AcDbLine
 10
248.4221617827627
 20
772.9576856506031
 30
0.0
 11
254.4221617848809
 21
778.1538380751441
 31
0.0
  0
LINE
  5
9B
330
47
100
AcDbEntity
  8
0
  6
Continuous
 62
     7
100
AcDbLine
 10
254.4221617848809
 20
800.0967355940817
 30
0.0
 11
254.4221617848807
 21
792.951367232508
 31
0.0
  0
LINE
  5
9C
330
47
100
AcDbEntity
  8
0
  6
Continuous
 62
     2
100
AcDbLine
 10
248.0997873269004
 20
797.3133735310106
 30
0.0
 11
251.6757514775826
 21
801.3880876721406
 31
0.0
  0
LINE
  5
9D
330
47
100
AcDbEntity
  8
0
  6
Continuous
 62
     7
100
AcDbLine
 10
251.0641498068241
 20
798.349762580935
 30
0.0
 11
250.5281972055742
 21
797.8856140130281
 31
0.0
  0
LINE
  5
9E
330
47
100
AcDbEntity
  8
0
  6
Continuous
 62
     2
100
AcDbLine
 10
247.2713899026226
 20
798.631590051749
 30
0.0
 11
250.8464344444463
 21
802.7052563235081
 31
0.0
  0
LINE
  5
9F
330
47
100
AcDbEntity
  8
0
  6
Continuous
 62
     7
100
AcDbLine
 10
248.6518477769611
 20
804.8754450583322
 30
0.0
 11
250.8464344444463
 21
802.7052563235081
 31
0.0
  0
LINE
  5
A0
330
47
100
AcDbEntity
  8
0
  6
Continuous
 62
     2
100
AcDbLine
 10
245.0768032326616
 20
800.8017787837517
 30
0.0
 11
248.6518477769611
 21
804.8754450583322
 31
0.0
  0
LINE
  5
A1
330
47
100
AcDbEntity
  8
0
  6
Continuous
 62
     7
100
AcDbLine
 10
233.3151322535871
 20
809.8396629455244
 30
0.0
 11
234.3151322383705
 21
810.705688336131
 31
0.0
  0
LINE
  5
A2
330
47
100
AcDbEntity
  8
0
  6
Continuous
 62
     7
100
AcDbLine
 10
236.7404452037382
 20
814.6243629429357
 30
0.0
 11
238.3151322383705
 21
814.1697899512687
 31
0.0
  0
LINE
  5
A3
330
47
100
AcDbEntity
  8
0
  6
Continuous
 62
     7
100
AcDbLine
 10
234.2326402488803
 20
810.7295017223
 30
0.0
 11
236.7404452037382
 21
814.6243629429357
 31
0.0
  0
LINE
  5
A4
330
47
100
AcDbEntity
  8
0
  6
Continuous
 62
     7
100
AcDbLine
 10
236.7404452037382
 20
814.6243629429357
 30
0.0
 11
232.7404452037382
 21
811.1602613277979
 31
0.0
  0
LINE
  5
A5
330
47
100
AcDbEntity
  8
0
  6
Continuous
 62
     7
100
AcDbLine
 10
234.3151322383705
 20
810.705688336131
 30
0.0
 11
237.9500076039876
 21
807.111223060357
 31
0.0
  0
LINE
  5
A6
330
47
100
AcDbEntity
  8
0
  6
Continuous
 62
     2
100
AcDbLine
 10
243.0427456426944
 20
804.4548371729387
 30
0.0
 11
243.4341324145832
 21
804.9008117819832
 31
0.0
  0
LINE
  5
A7
330
47
100
AcDbEntity
  8
0
  6
Continuous
 62
     7
100
AcDbLine
 10
243.4341324145832
 20
804.9008117819832
 30
0.0
 11
243.9700850158332
 21
805.36496034989
 31
0.0
  0
LINE
  5
A8
330
47
100
AcDbEntity
  8
0
  6
Continuous
 62
     2
100
AcDbLine
 10
242.8443377528677
 20
804.0822018829623
 30
0.0
 11
243.9700850158332
 21
805.36496034989
 31
0.0
  0
LINE
  5
A9
330
47
100
AcDbEntity
  8
0
  6
Continuous
 62
     7
100
AcDbLine
 10
245.0768032326616
 20
800.8017787837517
 30
0.0
 11
247.2713899026226
 21
798.631590051749
 31
0.0
  0
LINE
  5
AA
330
47
100
AcDbEntity
  8
0
  6
Continuous
 62
     7
100
AcDbLine
 10
245.8464344444463
 20
798.3751293045859
 30
0.0
 11
243.6518477769611
 21
800.54531803941
 31
0.0
  0
LINE
  5
AB
330
47
100
AcDbEntity
  8
0
  6
Continuous
 62
     7
100
AcDbLine
 10
238.3151322383705
 20
814.1697899512687
 30
0.0
 11
241.9500076039877
 21
810.5753246754948
 31
0.0
  0
LINE
  5
AC
330
47
100
AcDbEntity
  8
0
  6
Continuous
 62
     7
100
AcDbLine
 10
237.9500076039876
 20
807.111223060357
 30
0.0
 11
241.9500076039877
 21
810.5753246754948
 31
0.0
  0
LINE
  5
AD
330
47
100
AcDbEntity
  8
0
  6
Continuous
 62
     7
100
AcDbLine
 10
248.4221617827627
 20
774.9539384426624
 30
0.0
 11
248.4221617827627
 21
772.9576856506031
 31
0.0
  0
LINE
  5
AE
330
47
100
AcDbEntity
  8
0
  6
Continuous
 62
     7
100
AcDbLine
 10
248.4221617827627
 20
794.9005831695406
 30
0.0
 11
248.4221617827625
 21
787.755214807967
 31
0.0
  0
LINE
  5
AF
330
47
100
AcDbEntity
  8
0
  6
Continuous
 62
     2
100
AcDbLine
 10
243.2059403016912
 20
801.0786890214624
 30
0.0
 11
247.2865781425925
 21
805.7284651418082
 31
0.0
  0
LINE
  5
B0
330
47
100
AcDbEntity
  8
0
  6
Continuous
 62
     7
100
AcDbLine
 10
248.4221617827625
 20
787.755214807967
 30
0.0
 11
254.4221617848807
 21
792.951367232508
 31
0.0
  0
LINE
  5
B1
330
47
100
AcDbEntity
  8
0
  6
Continuous
 62
     7
100
AcDbLine
 10
248.4221617827627
 20
794.9005831695406
 30
0.0
 11
254.4221617848809
 21
800.0967355940817
 31
0.0
  0
LINE
  5
B2
330
47
100
AcDbEntity
  8
0
  6
Continuous
 62
     7
100
AcDbLine
 10
239.3151322557052
 20
815.0358153700654
 30
0.0
 11
254.4221617848809
 21
800.0967355940817
 31
0.0
  0
LINE
  5
B3
330
47
100
AcDbEntity
  8
0
  6
Continuous
 62
     7
100
AcDbLine
 10
166.6718716083491
 20
787.8698578387144
 30
0.0
 11
166.4305777366404
 21
791.5945564190868
 31
0.0
  0
LINE
  5
B4
330
47
100
AcDbEntity
  8
0
  6
Continuous
 62
     7
100
AcDbLine
 10
171.0997503347491
 20
796.020274134912
 30
0.0
 11
166.6400684573159
 21
792.1580763362577
 31
0.0
  0
LINE
  5
B5
330
47
100
AcDbEntity
  8
0
  6
Continuous
 62
     7
100
AcDbLine
 10
168.0836495398386
 20
790.8172012853944
 30
0.0
 11
168.1870694351782
 21
789.2207707339851
 31
0.0
  0
LINE
  5
B6
330
47
100
AcDbEntity
  8
0
  6
Continuous
 62
     7
100
AcDbLine
 10
169.6764887898087
 20
788.7908124013189
 30
0.0
 11
168.1870694351782
 21
789.2207707339851
 31
0.0
  0
LINE
  5
B7
330
47
100
AcDbEntity
  8
0
  6
Continuous
 62
     7
100
AcDbLine
 10
169.6764887898091
 20
790.5106452756559
 30
0.0
 11
168.1870694351782
 21
789.2207707339851
 31
0.0
  0
LINE
  5
B8
330
47
100
AcDbEntity
  8
0
  6
Continuous
 62
     7
100
AcDbLine
 10
167.9847917349677
 20
801.9739704208599
 30
0.0
 11
170.7346046727881
 21
803.1056073343198
 31
0.0
  0
LINE
  5
B9
330
47
100
AcDbEntity
  8
0
  6
Continuous
 62
     7
100
AcDbLine
 10
170.4408395718221
 20
792.8585878372375
 30
0.0
 11
168.0836495398386
 21
790.8172012853944
 31
0.0
  0
LINE
  5
BA
330
47
100
AcDbEntity
  8
0
  6
Continuous
 62
     7
100
AcDbLine
 10
171.2606339973162
 20
797.3272125155718
 30
0.0
 11
167.9847917349677
 21
798.2728667215673
 31
0.0
  0
LINE
  5
BB
330
47
100
AcDbEntity
  8
0
  6
Continuous
 62
     7
100
AcDbLine
 10
167.9847917349677
 20
798.2728667215673
 30
0.0
 11
167.9847917349677
 21
801.9739704208599
 31
0.0
  0
LINE
  5
BC
330
47
100
AcDbEntity
  8
0
  6
Continuous
 62
     7
100
AcDbLine
 10
209.1479105871638
 20
781.6959070924137
 30
0.0
 11
209.1479105871638
 21
785.2209635514578
 31
0.0
  0
LINE
  5
BD
330
47
100
AcDbEntity
  8
0
  6
Continuous
 62
     7
100
AcDbLine
 10
207.4267802874894
 20
808.0644445478904
 30
0.0
 11
217.9924998642545
 21
805.0143840269767
 31
0.0
  0
LINE
  5
BE
330
47
100
AcDbEntity
  8
0
  6
Continuous
 62
     7
100
AcDbLine
 10
167.9847917349677
 20
801.9739704208599
 30
0.0
 11
173.9847917370859
 21
807.170122845401
 31
0.0
  0
LINE
  5
BF
330
47
100
AcDbEntity
  8
0
  6
Continuous
 62
     7
100
AcDbLine
 10
178.6679437774886
 20
784.406890090679
 30
0.0
 11
166.6718716083491
 21
787.8698578387144
 31
0.0
  0
LINE
  5
C0
330
47
100
AcDbEntity
  8
0
  6
Continuous
 62
     7
100
AcDbLine
 10
173.4636403699672
 20
828.936272304116
 30
0.0
 11
182.8536695502229
 21
826.2256043666574
 31
0.0
  0
LINE
  5
C1
330
47
100
AcDbEntity
  8
0
  6
Continuous
 62
     7
100
AcDbLine
 10
187.869694938189
 20
829.5696097996303
 30
0.0
 11
187.869694938189
 21
824.8930726191943
 31
0.0
  0
LINE
  5
C2
330
47
100
AcDbEntity
  8
0
  6
Continuous
 62
     7
100
AcDbLine
 10
194.1687883834673
 20
823.0746809710532
 30
0.0
 11
198.2187883834673
 21
826.5820838563802
 31
0.0
  0
LINE
  5
C3
330
47
100
AcDbEntity
  8
0
  6
Continuous
 62
     7
100
AcDbLine
 10
200.6098139641929
 20
827.6527725633879
 30
0.0
 11
200.6098139641929
 21
826.2090783374027
 31
0.0
  0
LINE
  5
C4
330
47
100
AcDbEntity
  8
0
  6
Continuous
 62
     7
100
AcDbLine
 10
197.0534858180267
 20
818.4845147218355
 30
0.0
 11
196.5908470732316
 21
818.6180678709081
 31
0.0
  0
LINE
  5
C5
330
47
100
AcDbEntity
  8
0
  6
Continuous
 62
     7
100
AcDbLine
 10
196.5908470732316
 20
818.6180678709081
 30
0.0
 11
196.5908470732316
 21
817.6914206888588
 31
0.0
  0
LINE
  5
C6
330
47
100
AcDbEntity
  8
0
  6
Continuous
 62
     7
100
AcDbLine
 10
202.0684577521682
 20
816.1101706888588
 30
0.0
 11
202.0684577521682
 21
817.0368174378955
 31
0.0
  0
LINE
  5
C7
330
47
100
AcDbEntity
  8
0
  6
Continuous
 62
     7
100
AcDbLine
 10
207.3292568062037
 20
776.0856191064098
 30
0.0
 11
207.3292568062046
 21
780.2133147683551
 31
0.0
  0
LINE
  5
C8
330
47
100
AcDbEntity
  8
0
  6
Continuous
 62
     7
100
AcDbLine
 10
207.4267802874893
 20
817.3170080736077
 30
0.0
 11
207.4267802874894
 21
808.0644445478904
 31
0.0
  0
LINE
  5
C9
330
47
100
AcDbEntity
  8
0
  6
Continuous
 62
     7
100
AcDbLine
 10
202.4124771176026
 20
818.7599814293746
 30
0.0
 11
207.4267802874893
 21
817.3170080736077
 31
0.0
  0
LINE
  5
CA
330
47
100
AcDbEntity
  8
0
  6
Continuous
 62
     7
100
AcDbLine
 10
201.6058194183488
 20
817.1703696211795
 30
0.0
 11
202.4124771176026
 21
818.7599814293746
 31
0.0
  0
LINE
  5
CB
330
47
100
AcDbEntity
  8
0
  6
Continuous
 62
     7
100
AcDbLine
 10
202.0684577521682
 20
817.0368174378955
 30
0.0
 11
201.6058194183488
 21
817.1703696211795
 31
0.0
  0
LINE
  5
CC
330
47
100
AcDbEntity
  8
0
  6
Continuous
 62
     7
100
AcDbLine
 10
196.5908470732316
 20
817.6914206888588
 30
0.0
 11
202.0684577521682
 21
816.1101706888588
 31
0.0
  0
LINE
  5
CD
330
47
100
AcDbEntity
  8
0
  6
Continuous
 62
     7
100
AcDbLine
 10
196.2466020397199
 20
820.5404258942443
 30
0.0
 11
197.0534858180267
 21
818.4845147218355
 31
0.0
  0
LINE
  5
CE
330
47
100
AcDbEntity
  8
0
  6
Continuous
 62
     7
100
AcDbLine
 10
194.6098139620747
 20
821.0129259128618
 30
0.0
 11
196.2466020397199
 21
820.5404258942443
 31
0.0
  0
LINE
  5
CF
330
47
100
AcDbEntity
  8
0
  6
Continuous
 62
     7
100
AcDbLine
 10
194.6098139620747
 20
822.4566201388468
 30
0.0
 11
194.6098139620747
 21
821.0129259128618
 31
0.0
  0
LINE
  5
D0
330
47
100
AcDbEntity
  8
0
  6
Continuous
 62
     7
100
AcDbLine
 10
194.6098139620747
 20
821.0129259128618
 30
0.0
 11
200.6098139641929
 21
826.2090783374027
 31
0.0
  0
LINE
  5
D1
330
47
100
AcDbEntity
  8
0
  6
Continuous
 62
     7
100
AcDbLine
 10
200.6098139641929
 20
826.2090783374027
 30
0.0
 11
202.246602041838
 21
825.7365783187854
 31
0.0
  0
LINE
  5
D2
330
47
100
AcDbEntity
  8
0
  6
Continuous
 62
     7
100
AcDbLine
 10
194.6098139620747
 20
822.4566201388468
 30
0.0
 11
200.6098139641929
 21
827.6527725633879
 31
0.0
  0
LINE
  5
D3
330
47
100
AcDbEntity
  8
0
  6
Continuous
 62
     7
100
AcDbLine
 10
183.819694938189
 20
826.0622069143033
 30
0.0
 11
194.1687883834673
 21
823.0746809710532
 31
0.0
  0
LINE
  5
D4
330
47
100
AcDbEntity
  8
0
  6
Continuous
 62
     7
100
AcDbLine
 10
187.869694938189
 20
829.5696097996303
 30
0.0
 11
183.819694938189
 21
826.0622069143033
 31
0.0
  0
LINE
  5
D5
330
47
100
AcDbEntity
  8
0
  6
Continuous
 62
     7
100
AcDbLine
 10
198.2187883834673
 20
826.5820838563802
 30
0.0
 11
187.869694938189
 21
829.5696097996303
 31
0.0
  0
LINE
  5
D6
330
47
100
AcDbEntity
  8
0
  6
Continuous
 62
     7
100
AcDbLine
 10
182.528669565439
 20
825.944146123605
 30
0.0
 11
188.5286695675572
 21
831.140298548146
 31
0.0
  0
LINE
  5
D7
330
47
100
AcDbEntity
  8
0
  6
Continuous
 62
     7
100
AcDbLine
 10
188.5286695675572
 20
831.140298548146
 30
0.0
 11
200.6098139641929
 21
827.6527725633879
 31
0.0
  0
LINE
  5
D8
330
47
100
AcDbEntity
  8
0
  6
Continuous
 62
     7
100
AcDbLine
 10
174.7478246367134
 20
831.0481664156001
 30
0.0
 11
185.0036695675576
 21
828.0875589998062
 31
0.0
  0
LINE
  5
D9
330
47
100
AcDbEntity
  8
0
  6
Continuous
 62
     7
100
AcDbLine
 10
208.4124771197208
 20
823.9561338539156
 30
0.0
 11
213.4267802896075
 21
822.5131604981487
 31
0.0
  0
LINE
  5
DA
330
47
100
AcDbEntity
  8
0
  6
Continuous
 62
     7
100
AcDbLine
 10
213.4267802896075
 20
822.5131604981487
 30
0.0
 11
213.4267802896075
 21
813.260596972072
 31
0.0
  0
LINE
  5
DB
330
47
100
AcDbEntity
  8
0
  6
Continuous
 62
     7
100
AcDbLine
 10
217.2301120065578
 20
808.0170029035503
 30
0.0
 11
217.9924998642545
 21
807.7969204861163
 31
0.0
  0
LINE
  5
DC
330
47
100
AcDbEntity
  8
0
  6
Continuous
 62
     7
100
AcDbLine
 10
217.2130770008486
 20
781.7946720743697
 30
0.0
 11
216.8941197149345
 21
781.0104191225547
 31
0.0
  0
LINE
  5
DD
330
47
100
AcDbEntity
  8
0
  6
Continuous
 62
     7
100
AcDbLine
 10
212.7267802019198
 20
812.6543791134831
 30
0.0
 11
212.7267802019198
 21
806.9097445882842
 31
0.0
  0
LINE
  5
DE
330
47
100
AcDbEntity
  8
0
  6
Continuous
 62
     7
100
AcDbLine
 10
216.704210720819
 20
805.7615592978995
 30
0.0
 11
217.9924998642545
 21
806.8772504235343
 31
0.0
  0
LINE
  5
DF
330
47
100
AcDbEntity
  8
0
  6
Continuous
 62
     7
100
AcDbLine
 10
212.7267802019198
 20
812.6543791134831
 30
0.0
 11
213.4267802896075
 21
813.260596972072
 31
0.0
  0
LINE
  5
E0
330
47
100
AcDbEntity
  8
0
  6
Continuous
 62
     7
100
AcDbLine
 10
213.4267802896075
 20
813.260596972072
 30
0.0
 11
217.9924998642545
 21
811.9425872593386
 31
0.0
  0
LINE
  5
E1
330
47
100
AcDbEntity
  8
0
  6
Continuous
 62
     7
100
AcDbLine
 10
217.9924998642545
 20
811.13429678122
 30
0.0
 11
212.7267802019198
 21
812.6543791134831
 31
0.0
  0
LINE
  5
E2
330
47
100
AcDbEntity
  8
0
  6
Continuous
 62
     7
100
AcDbLine
 10
217.9924998642545
 20
805.0143840269767
 30
0.0
 11
217.9924998642545
 21
814.2629259128618
 31
0.0
  0
LINE
  5
E3
330
47
100
AcDbEntity
  8
0
  6
Continuous
 62
     7
100
AcDbLine
 10
214.1344044714673
 20
783.7814867582503
 30
0.0
 11
210.8941197128163
 21
775.8142666980137
 31
0.0
  0
LINE
  5
E4
330
47
100
AcDbEntity
  8
0
  6
Continuous
 62
     7
100
AcDbLine
 10
207.4267802874893
 20
817.3170080736077
 30
0.0
 11
213.4267802896075
 21
822.5131604981487
 31
0.0
  0
LINE
  5
E5
330
47
100
AcDbEntity
  8
0
  6
Continuous
 62
     7
100
AcDbLine
 10
207.7517807673291
 20
808.3459032196738
 30
0.0
 11
217.9924998642545
 21
805.3896622560212
 31
0.0
  0
LINE
  5
E6
330
47
100
AcDbEntity
  8
0
  6
Continuous
 62
     7
100
AcDbLine
 10
178.9615248435728
 20
788.7388705292259
 30
0.0
 11
178.4906104271693
 21
788.8748118117638
 31
0.0
  0
LINE
  5
E7
330
47
100
AcDbEntity
  8
0
  6
Continuous
 62
     7
100
AcDbLine
 10
178.4906104271693
 20
788.8748118117638
 30
0.0
 11
178.4906104271693
 21
791.1807176268597
 31
0.0
  0
LINE
  5
E8
330
47
100
AcDbEntity
  8
0
  6
Continuous
 62
     7
100
AcDbLine
 10
176.7346046749063
 20
808.3017597588608
 30
0.0
 11
177.667886293574
 21
808.032344561977
 31
0.0
  0
LINE
  5
E9
330
47
100
AcDbEntity
  8
0
  6
Continuous
 62
     7
100
AcDbLine
 10
180.6473505664745
 20
794.6174527821569
 30
0.0
 11
179.4601657038745
 21
794.9601635321568
 31
0.0
  0
LINE
  5
EA
330
47
100
AcDbEntity
  8
0
  6
Continuous
 62
     7
100
AcDbLine
 10
178.4906104271693
 20
791.1807176268597
 30
0.0
 11
180.9948343130982
 21
793.8257601843568
 31
0.0
  0
LINE
  5
EB
330
47
100
AcDbEntity
  8
0
  6
Continuous
 62
     7
100
AcDbLine
 10
177.5331395255123
 20
788.4670493511686
 30
0.0
 11
179.78692791404
 21
787.8164366847609
 31
0.0
  0
LINE
  5
EC
330
47
100
AcDbEntity
  8
0
  6
Continuous
 62
     7
100
AcDbLine
 10
207.4267802874894
 20
808.0644445478904
 30
0.0
 11
207.7517807673291
 21
808.3459032196738
 31
0.0
  0
LINE
  5
ED
330
47
100
AcDbEntity
  8
0
  6
Continuous
 62
     7
100
AcDbLine
 10
207.9354763209038
 20
781.8573074116587
 30
0.0
 11
207.3953478015391
 21
781.8685025087343
 31
0.0
  0
LINE
  5
EE
330
47
100
AcDbEntity
  8
0
  6
Continuous
 62
     7
100
AcDbLine
 10
209.500624854092
 20
780.4859045946102
 30
0.0
 11
210.0139351249229
 21
780.3377257381351
 31
0.0
  0
LINE
  5
EF
330
47
100
AcDbEntity
  8
0
  6
Continuous
 62
     7
100
AcDbLine
 10
207.3292568062046
 20
780.2133147683551
 30
0.0
 11
209.500624854092
 21
780.4859045946102
 31
0.0
  0
LINE
  5
F0
330
47
100
AcDbEntity
  8
0
  6
Continuous
 62
     7
100
AcDbLine
 10
207.3953478015391
 20
781.8685025087343
 30
0.0
 11
206.0854759962406
 21
782.5976093838534
 31
0.0
  0
LINE
  5
F1
330
47
100
AcDbEntity
  8
0
  6
Continuous
 62
     7
100
AcDbLine
 10
207.9354763209037
 20
782.7261228358052
 30
0.0
 11
207.9354763209038
 21
781.8573074116587
 31
0.0
  0
LINE
  5
F2
330
47
100
AcDbEntity
  8
0
  6
Continuous
 62
     7
100
AcDbLine
 10
207.6249395296909
 20
782.767605830833
 30
0.0
 11
207.9354763209037
 21
782.7261228358052
 31
0.0
  0
LINE
  5
F3
330
47
100
AcDbEntity
  8
0
  6
Continuous
 62
     7
100
AcDbLine
 10
209.1479105871638
 20
785.2209635514578
 30
0.0
 11
207.9353046651936
 21
785.571012729193
 31
0.0
  0
LINE
  5
F4
330
47
100
AcDbEntity
  8
0
  6
Continuous
 62
     7
100
AcDbLine
 10
209.500624854092
 20
780.4859045946102
 30
0.0
 11
210.0139351249229
 21
780.9304443291732
 31
0.0
  0
LINE
  5
F5
330
47
100
AcDbEntity
  8
0
  6
Continuous
 62
     7
100
AcDbLine
 10
179.78692791404
 20
787.8164366847609
 30
0.0
 11
179.78692791404
 21
789.0220325380202
 31
0.0
  0
LINE
  5
F6
330
47
100
AcDbEntity
  8
0
  6
Continuous
 62
     7
100
AcDbLine
 10
179.1434423877959
 20
789.3652793777496
 30
0.0
 11
178.9615248435728
 21
788.7388705292259
 31
0.0
  0
LINE
  5
F7
330
47
100
AcDbEntity
  8
0
  6
Continuous
 62
     7
100
AcDbLine
 10
179.78692791404
 20
789.0220325380202
 30
0.0
 11
180.6962545880136
 21
788.4893440387413
 31
0.0
  0
LINE
  5
F8
330
47
100
AcDbEntity
  8
0
  6
Continuous
 62
     7
100
AcDbLine
 10
179.9628536136028
 20
789.2004253534357
 30
0.0
 11
179.1434423877959
 21
789.3652793777496
 31
0.0
  0
LINE
  5
F9
330
47
100
AcDbEntity
  8
0
  6
Continuous
 62
     7
100
AcDbLine
 10
183.0318663708752
 20
789.4460076173957
 30
0.0
 11
181.283487736534
 21
789.4822442594831
 31
0.0
  0
LINE
  5
FA
330
47
100
AcDbEntity
  8
0
  6
Continuous
 62
     7
100
AcDbLine
 10
185.8355191009838
 20
792.4073165375811
 30
0.0
 11
183.0318663708752
 21
789.4460076173957
 31
0.0
  0
LINE
  5
FB
330
47
100
AcDbEntity
  8
0
  6
Continuous
 62
     7
100
AcDbLine
 10
169.6764887898091
 20
790.5232841766282
 30
0.0
 11
169.6764887898087
 21
788.7908124013189
 31
0.0
  0
LINE
  5
FC
330
47
100
AcDbEntity
  8
0
  6
Continuous
 62
     7
100
AcDbLine
 10
180.6962545880136
 20
788.4893440387413
 30
0.0
 11
180.6962545880136
 21
787.6698101789983
 31
0.0
  0
LINE
  5
FD
330
47
100
AcDbEntity
  8
0
  6
Continuous
 62
     7
100
AcDbLine
 10
179.9628536136029
 20
790.2173417016332
 30
0.0
 11
179.9628536136028
 21
789.2004253534357
 31
0.0
  0
LINE
  5
FE
330
47
100
AcDbEntity
  8
0
  6
Continuous
 62
     7
100
AcDbLine
 10
181.283487736534
 20
789.4822442594831
 30
0.0
 11
179.9628536136029
 21
790.2173417016332
 31
0.0
  0
LINE
  5
FF
330
47
100
AcDbEntity
  8
0
  6
Continuous
 62
     7
100
AcDbLine
 10
187.0843134438217
 20
788.0827725411308
 30
0.0
 11
187.0843134438217
 21
791.633428668513
 31
0.0
  0
LINE
  5
100
330
47
100
AcDbEntity
  8
0
  6
Continuous
 62
     7
100
AcDbLine
 10
173.9847917370859
 20
807.170122845401
 30
0.0
 11
176.7346046749063
 21
808.3017597588608
 31
0.0
  0
LINE
  5
101
330
47
100
AcDbEntity
  8
0
  6
Continuous
 62
     7
100
AcDbLine
 10
177.6678862935741
 20
812.8414074424447
 30
0.0
 11
168.7478246345944
 21
815.4164078975505
 31
0.0
  0
LINE
  5
102
330
47
100
AcDbEntity
  8
0
  6
Continuous
 62
     7
100
AcDbLine
 10
170.7346046727881
 20
803.1056073343198
 30
0.0
 11
176.7346046749063
 21
808.3017597588608
 31
0.0
  0
LINE
  5
103
330
47
100
AcDbEntity
  8
0
  6
Continuous
 62
     7
100
AcDbLine
 10
206.0854759962406
 20
782.5976093838534
 30
0.0
 11
187.0843134438217
 21
788.0827725411308
 31
0.0
  0
LINE
  5
104
330
47
100
AcDbEntity
  8
0
  6
Continuous
 62
     7
100
AcDbLine
 10
168.7478246345953
 20
825.8520139910592
 30
0.0
 11
174.7478246367134
 21
831.0481664156001
 31
0.0
  0
LINE
  5
105
330
47
100
AcDbEntity
  8
0
  6
Continuous
 62
     7
100
AcDbLine
 10
172.8358884737049
 20
827.0967627250981
 30
0.0
 11
173.4636403699672
 21
827.640411814535
 31
0.0
  0
LINE
  5
106
330
47
100
AcDbEntity
  8
0
  6
Continuous
 62
     7
100
AcDbLine
 10
182.2740403587374
 20
825.0970684119426
 30
0.0
 11
173.4636403699672
 21
827.640411814535
 31
0.0
  0
LINE
  5
107
330
47
100
AcDbEntity
  8
0
  6
Continuous
 62
     7
100
AcDbLine
 10
173.4636403699672
 20
828.936272304116
 30
0.0
 11
173.4636403699672
 21
827.640411814535
 31
0.0
  0
LINE
  5
108
330
47
100
AcDbEntity
  8
0
  6
Continuous
 62
     7
100
AcDbLine
 10
171.7136403699672
 20
827.4207278474931
 30
0.0
 11
173.4636403699672
 21
828.936272304116
 31
0.0
  0
LINE
  5
109
330
47
100
AcDbEntity
  8
0
  6
Continuous
 62
     7
100
AcDbLine
 10
168.7478246345944
 20
815.4164078975505
 30
0.0
 11
168.7478246345953
 21
825.8520139910592
 31
0.0
  0
LINE
  5
10A
330
47
100
AcDbEntity
  8
0
  6
Continuous
 62
     2
100
AcDbLine
 10
179.2606643403311
 20
794.9690584571752
 30
0.0
 11
179.0512907774886
 21
794.7877356328727
 31
0.0
  0
LINE
  5
10B
330
47
100
AcDbEntity
  8
0
  6
Continuous
 62
     7
100
AcDbLine
 10
177.5331395255123
 20
788.4670493511686
 30
0.0
 11
178.4906104271693
 21
789.2962434753879
 31
0.0
  0
LINE
  5
10C
330
47
100
AcDbEntity
  8
0
  6
Continuous
 62
     7
100
AcDbLine
 10
179.78692791404
 20
789.0220325380202
 30
0.0
 11
180.6959594617594
 21
789.8092769511867
 31
0.0
  0
LINE
  5
10D
330
47
100
AcDbEntity
  8
0
  6
Continuous
 62
     7
100
AcDbLine
 10
179.9628536136028
 20
789.2004253534357
 30
0.0
 11
180.6776579186375
 21
789.8194640403302
 31
0.0
  0
LINE
  5
10E
330
47
100
AcDbEntity
  8
0
  6
Continuous
 62
     7
100
AcDbLine
 10
178.9615248435728
 20
788.7388705292259
 30
0.0
 11
179.5827777012956
 21
789.2768912861875
 31
0.0
  0
LINE
  5
10F
330
47
100
AcDbEntity
  8
0
  6
Continuous
 62
     7
100
AcDbLine
 10
180.6962545880136
 20
787.6698101789983
 30
0.0
 11
182.7538834568474
 21
789.4517690509687
 31
0.0
  0
LINE
  5
110
330
47
100
AcDbEntity
  8
0
  6
Continuous
 62
     7
100
AcDbLine
 10
180.6962545880136
 20
788.4893440387413
 30
0.0
 11
181.8296853216769
 21
789.4709238475236
 31
0.0
  0
LINE
  5
111
330
47
100
AcDbEntity
  8
0
  6
Continuous
 62
     7
100
AcDbLine
 10
170.7346046727881
 20
803.1056073343198
 30
0.0
 11
177.667886293574
 21
801.1041413292558
 31
0.0
  0
LINE
  5
112
330
47
100
AcDbEntity
  8
0
  6
Continuous
 62
     7
100
AcDbLine
 10
177.667886293574
 20
801.1041413292558
 30
0.0
 11
177.6678862935741
 21
812.8414074424447
 31
0.0
  0
LINE
  5
113
330
47
100
AcDbEntity
  8
0
  6
Continuous
 62
     7
100
AcDbLine
 10
181.4028369265364
 20
822.1988266143853
 30
0.0
 11
182.528669565439
 21
825.944146123605
 31
0.0
  0
LINE
  5
114
330
47
100
AcDbEntity
  8
0
  6
Continuous
 62
     7
100
AcDbLine
 10
207.9354763209038
 20
781.8573074116587
 30
0.0
 11
209.1479105871638
 21
782.9073062866586
 31
0.0
  0
LINE
  5
115
330
47
100
AcDbEntity
  8
0
  6
Continuous
 62
     7
100
AcDbLine
 10
209.1479105871638
 20
781.6959070924137
 30
0.0
 11
210.0139351249229
 21
781.4119318912975
 31
0.0
  0
LINE
  5
116
330
47
100
AcDbEntity
  8
0
  6
Continuous
 62
     7
100
AcDbLine
 10
207.9354763209037
 20
782.7261228358052
 30
0.0
 11
209.1479105871638
 21
783.7761217108052
 31
0.0
  0
LINE
  5
117
330
47
100
AcDbEntity
  8
0
  6
Continuous
 62
     2
100
AcDbLine
 10
209.1479105871638
 20
784.086537455833
 30
0.0
 11
207.6249395296909
 21
782.767605830833
 31
0.0
  0
LINE
  5
118
330
47
100
AcDbEntity
  8
0
  6
Continuous
 62
     7
100
AcDbLine
 10
209.0836520409285
 20
785.2395133959411
 30
0.0
 11
207.0899912945942
 21
783.5129525430879
 31
0.0
  0
LINE
  5
119
330
47
100
AcDbEntity
  8
0
  6
Continuous
 62
     2
100
AcDbLine
 10
185.9029162024214
 20
792.4656841395675
 30
0.0
 11
185.8355191009838
 21
792.4073165375811
 31
0.0
  0
LINE
  5
11A
330
47
100
AcDbEntity
  8
0
  6
Continuous
 62
     7
100
AcDbLine
 10
183.0318663708752
 20
789.4460076173957
 30
0.0
 11
186.5276410869245
 21
792.4734373274018
 31
0.0
  0
LINE
  5
11B
330
47
100
AcDbEntity
  8
0
  6
Continuous
 62
     7
100
AcDbLine
 10
202.246602041838
 20
825.7365783187854
 30
0.0
 11
203.0534858201448
 21
823.6806671463764
 31
0.0
  0
LINE
  5
11C
330
47
100
AcDbEntity
  8
0
  6
Continuous
 62
     7
100
AcDbLine
 10
197.0534858180267
 20
818.4845147218355
 30
0.0
 11
203.0534858201448
 21
823.6806671463764
 31
0.0
  0
LINE
  5
11D
330
47
100
AcDbEntity
  8
0
  6
Continuous
 62
     7
100
AcDbLine
 10
202.5908470753498
 20
822.8875731133999
 30
0.0
 11
206.0316688618547
 21
821.8942934210638
 31
0.0
  0
LINE
  5
11E
330
47
100
AcDbEntity
  8
0
  6
Continuous
 62
     7
100
AcDbLine
 10
202.5908470753498
 20
823.280010240609
 30
0.0
 11
202.5908470753498
 21
822.8875731133999
 31
0.0
  0
LINE
  5
11F
330
47
100
AcDbEntity
  8
0
  6
Continuous
 62
     7
100
AcDbLine
 10
202.4124771176026
 20
818.7599814293746
 30
0.0
 11
208.4124771197208
 21
823.9561338539156
 31
0.0
  0
LINE
  5
120
330
47
100
AcDbEntity
  8
0
  6
Continuous
 62
     7
100
AcDbLine
 10
182.528669565439
 20
825.944146123605
 30
0.0
 11
194.6098139620747
 21
822.4566201388468
 31
0.0
  0
LINE
  5
121
330
47
100
AcDbEntity
  8
0
  6
Continuous
 62
     7
100
AcDbLine
 10
196.2466020397199
 20
820.5404258942443
 30
0.0
 11
202.246602041838
 21
825.7365783187854
 31
0.0
  0
LINE
  5
122
330
47
100
AcDbEntity
  8
0
  6
Continuous
 62
     7
100
AcDbLine
 10
168.7478246345953
 20
825.8520139910592
 30
0.0
 11
181.4028369265364
 21
822.1988266143853
 31
0.0
  0
LINE
  5
123
330
47
100
AcDbEntity
  8
0
  6
Continuous
 62
     7
100
AcDbLine
 10
202.5908470753498
 20
822.8875731133999
 30
0.0
 11
196.5908470732316
 21
817.6914206888588
 31
0.0
  0
LINE
  5
124
330
47
100
AcDbEntity
  8
0
  6
Continuous
 62
     7
100
AcDbLine
 10
182.0735457278313
 20
824.4300807739232
 30
0.0
 11
171.7136403699672
 21
827.4207278474931
 31
0.0
  0
LINE
  5
125
330
47
100
AcDbEntity
  8
0
  6
Continuous
 62
     7
100
AcDbLine
 10
184.8820428306724
 20
789.7789563275246
 30
0.0
 11
178.8820428285542
 21
784.5828039029836
 31
0.0
  0
LINE
  5
126
330
47
100
AcDbEntity
  8
0
  6
Continuous
 62
     7
100
AcDbLine
 10
227.3158723533955
 20
815.7500731133998
 30
0.0
 11
230.7564781783992
 21
814.7568554917946
 31
0.0
  0
LINE
  5
127
330
47
100
AcDbEntity
  8
0
  6
Continuous
 62
     7
100
AcDbLine
 10
223.9924998663727
 20
819.4590783374027
 30
0.0
 11
226.9716273198836
 21
818.5990783187854
 31
0.0
  0
LINE
  5
128
330
47
100
AcDbEntity
  8
0
  6
Continuous
 62
     7
100
AcDbLine
 10
227.3158723533955
 20
816.1425108664081
 30
0.0
 11
227.3158723533955
 21
815.7500731133998
 31
0.0
  0
LINE
  5
129
330
47
100
AcDbEntity
  8
0
  6
Continuous
 62
     7
100
AcDbLine
 10
221.7785109127681
 20
811.3470151888883
 30
0.0
 11
227.7785109148862
 21
816.5431676134294
 31
0.0
  0
LINE
  5
12A
330
47
100
AcDbEntity
  8
0
  6
Continuous
 62
     7
100
AcDbLine
 10
226.9716273198836
 20
818.5990783187854
 30
0.0
 11
227.7785109148862
 21
816.5431676134294
 31
0.0
  0
LINE
  5
12B
330
47
100
AcDbEntity
  8
0
  6
Continuous
 62
     7
100
AcDbLine
 10
220.9716273177654
 20
813.4029258942444
 30
0.0
 11
221.7785109127681
 21
811.3470151888883
 31
0.0
  0
LINE
  5
12C
330
47
100
AcDbEntity
  8
0
  6
Continuous
 62
     7
100
AcDbLine
 10
226.3308445369471
 20
810.032869667208
 30
0.0
 11
227.1377280368262
 21
811.6229259392437
 31
0.0
  0
LINE
  5
12D
330
47
100
AcDbEntity
  8
0
  6
Continuous
 62
     7
100
AcDbLine
 10
217.2130770008486
 20
775.3332769016295
 30
0.0
 11
217.2130770008486
 21
782.8927505514574
 31
0.0
  0
LINE
  5
12E
330
47
100
AcDbEntity
  8
0
  6
Continuous
 62
     7
100
AcDbLine
 10
220.9716273177654
 20
813.4029258942444
 30
0.0
 11
226.9716273198836
 21
818.5990783187854
 31
0.0
  0
LINE
  5
12F
330
47
100
AcDbEntity
  8
0
  6
Continuous
 62
     7
100
AcDbLine
 10
221.3158723512773
 20
810.5539206888589
 30
0.0
 11
227.3158723533955
 21
815.7500731133998
 31
0.0
  0
LINE
  5
130
330
47
100
AcDbEntity
  8
0
  6
Continuous
 62
     7
100
AcDbLine
 10
217.9924998642545
 20
814.2629259128618
 30
0.0
 11
223.9924998663727
 21
819.4590783374027
 31
0.0
  0
LINE
  5
131
330
47
100
AcDbEntity
  8
0
  6
Continuous
 62
     7
100
AcDbLine
 10
227.1377280368262
 20
811.6229259392437
 30
0.0
 11
233.1377280389443
 21
816.8190783637848
 31
0.0
  0
LINE
  5
132
330
47
100
AcDbEntity
  8
0
  6
Continuous
 62
     7
100
AcDbLine
 10
233.3151322535871
 20
809.8396629455244
 30
0.0
 11
248.4221617827627
 21
794.9005831695406
 31
0.0
  0
SPLINE
  5
133
330
47
100
AcDbEntity
  8
0
  6
Continuous
 62
     7
100
AcDbSpline
210
0.0
220
0.0
230
1.0
 70
     8
 71
     3
 72
    11
 73
     7
 74
     5
 42
0.000000001
 43
0.0000000001
 44
0.00000001
 40
0.0
 40
0.0
 40
0.0
 40
0.0
 40
0.6722925996674367
 40
1.378443781888454
 40
2.142891624535311
 40
2.976668533465268
 40
2.976668533465268
 40
2.976668533465268
 40
2.976668533465268
 10
251.2751568741145
 20
798.5593106173895
 30
0.0
 10
251.4079625654621
 20
798.7420784600295
 30
0.0
 10
251.6802624109445
 20
799.1168188655345
 30
0.0
 10
251.8576197554419
 20
799.823435034539
 30
0.0
 10
251.8730149953787
 20
800.5982403366183
 30
0.0
 10
251.7433804519567
 20
801.1172998357233
 30
0.0
 10
251.6757514775826
 20
801.3880876721406
 30
0.0
 11
251.2751568741145
 21
798.5593106173895
 31
0.0
 11
251.6359400703577
 21
799.126596108065
 31
0.0
 11
251.8269961290458
 21
799.8064101113293
 31
0.0
 11
251.8404510845988
 21
800.5707395376054
 31
0.0
 11
251.6757514775826
 21
801.3880876721406
 31
0.0
  0
SPLINE
  5
134
330
47
100
AcDbEntity
  8
0
  6
Continuous
 62
     7
100
AcDbSpline
210
0.0
220
0.0
230
1.0
 70
     8
 71
     3
 72
     9
 73
     5
 74
     3
 42
0.000000001
 43
0.0000000001
 44
0.00000001
 40
0.0
 40
0.0
 40
0.0
 40
0.0
 40
0.1489743512925741
 40
0.2975533091669735
 40
0.2975533091669735
 40
0.2975533091669735
 40
0.2975533091669735
 10
251.0641498068241
 20
798.349762580935
 30
0.0
 10
251.1011591944428
 20
798.3829265180382
 30
0.0
 10
251.1750797290818
 20
798.4491663861204
 30
0.0
 10
251.2418273956465
 20
798.5226284081508
 30
0.0
 10
251.2751568741145
 20
798.5593106173895
 30
0.0
 11
251.0641498068241
 21
798.349762580935
 31
0.0
 11
251.1733799769794
 21
798.4510647397117
 31
0.0
 11
251.2751568741145
 21
798.5593106173895
 31
0.0
  0
SPLINE
  5
135
330
47
100
AcDbEntity
  8
0
  6
Continuous
 62
     7
100
AcDbSpline
210
0.0
220
0.0
230
1.0
 70
     8
 71
     3
 72
    11
 73
     7
 74
     5
 42
0.000000001
 43
0.0000000001
 44
0.00000001
 40
0.0
 40
0.0
 40
0.0
 40
0.0
 40
0.3675874814451999
 40
0.7551761016212506
 40
1.158247881675167
 40
1.571160534247752
 40
1.571160534247752
 40
1.571160534247752
 40
1.571160534247752
 10
251.6757514775826
 20
801.3880876721406
 30
0.0
 10
251.6350210451163
 20
801.5038710169248
 30
0.0
 10
251.551343945275
 20
801.7417376944593
 30
0.0
 10
251.3610719948208
 20
802.0794546385284
 30
0.0
 10
251.1289885414336
 20
802.4079640236805
 30
0.0
 10
250.9413733678842
 20
802.6053653322219
 30
0.0
 10
250.8464344444463
 20
802.7052563235081
 30
0.0
 11
251.6757514775826
 21
801.3880876721406
 31
0.0
 11
251.5439928430841
 21
801.7312497612143
 31
0.0
 11
251.358190449773
 21
802.071400331183
 31
0.0
 11
251.1235000961759
 21
802.3991003445553
 31
0.0
 11
250.8464344444463
 21
802.7052563235081
 31
0.0
  0
SPLINE
  5
136
330
47
100
AcDbEntity
  8
0
  6
Continuous
 62
     7
100
AcDbSpline
210
0.0
220
0.0
230
1.0
 70
     8
 71
     3
 72
    11
 73
     7
 74
     5
 42
0.000000001
 43
0.0000000001
 44
0.00000001
 40
0.0
 40
0.0
 40
0.0
 40
0.0
 40
0.9893576656260231
 40
1.893520178883014
 40
2.714994676266293
 40
3.476179533219026
 40
3.476179533219026
 40
3.476179533219026
 40
3.476179533219026
 10
247.2117040788149
 20
797.5221092211099
 30
0.0
 10
247.5310672442994
 20
797.4345020576549
 30
0.0
 10
248.142292711161
 20
797.2668317361563
 30
0.0
 10
249.0542027221922
 20
797.2574205543851
 30
0.0
 10
249.8825215402861
 20
797.4334048935991
 30
0.0
 10
250.3185081269169
 20
797.7387549590263
 30
0.0
 10
250.5281972055742
 20
797.8856140130281
 30
0.0
 11
247.2117040788149
 21
797.5221092211099
 31
0.0
 11
248.1765554172153
 21
797.3032702760827
 31
0.0
 11
249.0806513958701
 21
797.292301406186
 31
0.0
 11
249.8780407138935
 21
797.4897618607488
 31
0.0
 11
250.5281972055742
 21
797.8856140130281
 31
0.0
  0
SPLINE
  5
137
330
47
100
AcDbEntity
  8
0
  6
Continuous
 62
     7
100
AcDbSpline
210
0.0
220
0.0
230
1.0
 70
     8
 71
     3
 72
    11
 73
     7
 74
     5
 42
0.000000001
 43
0.0000000001
 44
0.00000001
 40
0.0
 40
0.0
 40
0.0
 40
0.0
 40
0.4164490850549816
 40
0.829901010478966
 40
1.234016075419384
 40
1.623080051140057
 40
1.623080051140057
 40
1.623080051140057
 40
1.623080051140057
 10
248.6518477769611
 20
804.8754450583322
 30
0.0
 10
248.5500106889671
 20
804.9700186947501
 30
0.0
 10
248.3470694187079
 20
805.1584853153886
 30
0.0
 10
248.0084517838736
 20
805.3938184036921
 30
0.0
 10
247.6566710635656
 20
805.591476953441
 30
0.0
 10
247.4083719053336
 20
805.6833837473597
 30
0.0
 10
247.2865781425925
 20
805.7284651418082
 30
0.0
 11
248.6518477769611
 21
804.8754450583322
 31
0.0
 11
248.3400951707539
 21
805.1515612535275
 31
0.0
 11
248.0023066747412
 21
805.3899756564848
 31
0.0
 11
247.6478557063662
 21
805.5840722761363
 31
0.0
 11
247.2865781425925
 21
805.7284651418082
 31
0.0
  0
SPLINE
  5
138
330
47
100
AcDbEntity
  8
0
  6
Continuous
 62
     7
100
AcDbSpline
210
0.0
220
0.0
230
1.0
 70
     8
 71
     3
 72
    19
 73
    15
 74
    13
 42
0.000000001
 43
0.0000000001
 44
0.00000001
 40
0.0
 40
0.0
 40
0.0
 40
0.0
 40
0.2697519311139711
 40
0.5599258080265537
 40
0.8826898426421628
 40
1.239953191622112
 40
1.625498447363706
 40
2.027845603516472
 40
2.432816215844203
 40
2.825833931581793
 40
3.194184689280812
 40
3.529465167633321
 40
3.830370237488053
 40
4.105343598848342
 40
4.105343598848342
 40
4.105343598848342
 40
4.105343598848342
 10
240.6550792462377
 20
808.0122137698011
 30
0.0
 10
240.6034872158679
 20
807.9372733835901
 30
0.0
 10
240.4963973216688
 20
807.781719137891
 30
0.0
 10
240.4551228963842
 20
807.4812111193769
 30
0.0
 10
240.4981562875427
 20
807.1586697263734
 30
0.0
 10
240.6282637586596
 20
806.8246805343335
 30
0.0
 10
240.8337757995012
 20
806.5007265331468
 30
0.0
 10
241.1027605653811
 20
806.2053079746177
 30
0.0
 10
241.4185201262759
 20
805.9565330515874
 30
0.0
 10
241.7616139079701
 20
805.7698592638831
 30
0.0
 10
242.1121444689463
 20
805.6559946029215
 30
0.0
 10
242.4472025215852
 20
805.6255068963549
 30
0.0
 10
242.755596082411
 20
805.6733582991811
 30
0.0
 10
242.9160756462732
 20
805.7823594334418
 30
0.0
 10
242.9927022408877
 20
805.834405855401
 30
0.0
 11
240.6550792462377
 21
808.0122137698011
 31
0.0
 11
240.5190815698822
 21
807.7792529593985
 31
0.0
 11
240.46916350027
 21
807.49340497585
 31
0.0
 11
240.5085363278654
 21
807.1730514160461
 31
0.0
 11
240.6346668963916
 21
806.8387937610005
 31
0.0
 11
240.8394451712952
 21
806.5121272615038
 31
0.0
 11
241.109701391055
 21
806.2140587984213
 31
0.0
 11
241.4280568034087
 21
805.9637569409438
 31
0.0
 11
241.7740382393196
 21
805.7773172381617
 31
0.0
 11
242.1253967000787
 21
805.666730113105
 31
0.0
 11
242.4595372610896
 21
805.6391060838355
 31
0.0
 11
242.7549717823495
 21
805.6962227138947
 31
0.0
 11
242.9927022408877
 21
805.834405855401
 31
0.0
  0
SPLINE
  5
139
330
47
100
AcDbEntity
  8
0
  6
Continuous
 62
     7
100
AcDbSpline
210
0.0
220
0.0
230
1.0
 70
     8
 71
     3
 72
     9
 73
     5
 74
     3
 42
0.000000001
 43
0.0000000001
 44
0.00000001
 40
0.0
 40
0.0
 40
0.0
 40
0.0
 40
0.4388504244935885
 40
0.877700848987298
 40
0.877700848987298
 40
0.877700848987298
 40
0.877700848987298
 10
240.8612109313323
 20
806.483964477809
 30
0.0
 10
240.9839021772423
 20
806.4029196904484
 30
0.0
 10
241.2292846566625
 20
806.2408301002206
 30
0.0
 10
241.4218601137447
 20
806.018568340585
 30
0.0
 10
241.5181478354034
 20
805.9074374536137
 30
0.0
 11
240.8612109313323
 21
806.483964477809
 31
0.0
 11
241.2160829076741
 21
806.2257870653848
 31
0.0
 11
241.5181478354034
 21
805.9074374536137
 31
0.0
  0
SPLINE
  5
13A
330
47
100
AcDbEntity
  8
0
  6
Continuous
 62
     7
100
AcDbSpline
210
0.0
220
0.0
230
1.0
 70
     8
 71
     3
 72
     9
 73
     5
 74
     3
 42
0.000000001
 43
0.0000000001
 44
0.00000001
 40
0.0
 40
0.0
 40
0.0
 40
0.0
 40
0.0476717921809622
 40
0.0952170584681214
 40
0.0952170584681214
 40
0.0952170584681214
 40
0.0952170584681214
 10
242.9927022408877
 20
805.834405855401
 30
0.0
 10
243.0045452448678
 20
805.8450183152221
 30
0.0
 10
243.0281998064288
 20
805.8662150827067
 30
0.0
 10
243.049559069363
 20
805.8897229201674
 30
0.0
 10
243.0602245024205
 20
805.9014612270664
 30
0.0
 11
242.9927022408877
 21
805.834405855401
 31
0.0
 11
243.0276558953374
 21
805.8668225462095
 31
0.0
 11
243.0602245024205
 21
805.9014612270664
 31
0.0
  0
SPLINE
  5
13B
330
47
100
AcDbEntity
  8
0
  6
Continuous
 62
     7
100
AcDbSpline
210
0.0
220
0.0
230
1.0
 70
     8
 71
     3
 72
    11
 73
     7
 74
     5
 42
0.000000001
 43
0.0000000001
 44
0.00000001
 40
0.0
 40
0.0
 40
0.0
 40
0.0
 40
0.9893576656260206
 40
1.893520178883067
 40
2.714994676266346
 40
3.476179533219089
 40
3.476179533219089
 40
3.476179533219089
 40
3.476179533219089
 10
247.2865781425925
 20
805.7284651418082
 30
0.0
 10
246.967214977108
 20
805.8160723052629
 30
0.0
 10
246.3559895102465
 20
805.9837426267624
 30
0.0
 10
245.4440794992151
 20
805.9931538085326
 30
0.0
 10
244.6157606811212
 20
805.817169469319
 30
0.0
 10
244.1797740944905
 20
805.5118194038919
 30
0.0
 10
243.9700850158332
 20
805.36496034989
 30
0.0
 11
247.2865781425925
 21
805.7284651418082
 31
0.0
 11
246.3217268041921
 21
805.9473040868355
 31
0.0
 11
245.4176308255373
 21
805.9582729567321
 31
0.0
 11
244.6202415075139
 21
805.7608125021694
 31
0.0
 11
243.9700850158332
 21
805.36496034989
 31
0.0
  0
SPLINE
  5
13C
330
47
100
AcDbEntity
  8
0
  6
Continuous
 62
     7
100
AcDbSpline
210
0.0
220
0.0
230
1.0
 70
     8
 71
     3
 72
    19
 73
    15
 74
    13
 42
0.000000001
 43
0.0000000001
 44
0.00000001
 40
0.0
 40
0.0
 40
0.0
 40
0.0
 40
0.2778616297154782
 40
0.5778791998820236
 40
0.9128226611110404
 40
1.284028859010681
 40
1.683992129985901
 40
2.099653152865148
 40
2.515314175658131
 40
2.915277446388039
 40
3.286483643926807
 40
3.621427104755812
 40
3.921444674595493
 40
4.199306304181625
 40
4.199306304181625
 40
4.199306304181625
 40
4.199306304181625
 10
243.0602245024205
 20
805.9014612270664
 30
0.0
 10
243.113105670193
 20
805.9789070301871
 30
0.0
 10
243.2230845952085
 20
806.1399739637142
 30
0.0
 10
243.2608270103518
 20
806.4518386526621
 30
0.0
 10
243.209557890789
 20
806.7853737328834
 30
0.0
 10
243.0668028359953
 20
807.1290638774216
 30
0.0
 10
242.8456909504617
 20
807.4595757298047
 30
0.0
 10
242.5598014857918
 20
807.7569179327465
 30
0.0
 10
242.2278591628058
 20
808.0017841529635
 30
0.0
 10
241.8714379230014
 20
808.1781146668461
 30
0.0
 10
241.5121229037698
 20
808.2750406067819
 30
0.0
 10
241.1747545143185
 20
808.2825733303321
 30
0.0
 10
240.8704293721181
 20
808.2046613173079
 30
0.0
 10
240.7250040792359
 20
808.0747020730956
 30
0.0
 10
240.6550792462377
 20
808.0122137698011
 30
0.0
 11
243.0602245024205
 21
805.9014612270664
 31
0.0
 11
243.1989652801617
 21
806.1422060809033
 31
0.0
 11
243.2462984567546
 21
806.4384663000326
 31
0.0
 11
243.1989969483898
 21
806.7700529266674
 31
0.0
 11
243.0602856807555
 21
807.1143685169898
 31
0.0
 11
242.8396162872517
 21
807.4479485475948
 31
0.0
 11
242.552028147534
 21
807.7480604247421
 31
0.0
 11
242.2171190546749
 21
807.9942513595057
 31
0.0
 11
241.857713052664
 21
808.1697447883572
 31
0.0
 11
241.4983028814191
 21
808.2625799651253
 31
0.0
 11
241.1633815651086
 21
808.2664316231434
 31
0.0
 11
240.8757739806144
 21
808.181035931272
 31
0.0
 11
240.6550792462377
 21
808.0122137698011
 31
0.0
  0
SPLINE
  5
13D
330
47
100
AcDbEntity
  8
0
  6
Continuous
 62
     7
100
AcDbSpline
210
0.0
220
0.0
230
1.0
 70
     8
 71
     3
 72
     9
 73
     5
 74
     3
 42
0.000000001
 43
0.0000000001
 44
0.00000001
 40
0.0
 40
0.0
 40
0.0
 40
0.0
 40
0.1489743512924699
 40
0.2975533091669131
 40
0.2975533091669131
 40
0.2975533091669131
 40
0.2975533091669131
 10
243.4341324145832
 20
804.9008117819832
 30
0.0
 10
243.3971230269647
 20
804.8676478448803
 30
0.0
 10
243.3232024923253
 20
804.8014079767972
 30
0.0
 10
243.256454825761
 20
804.7279459547675
 30
0.0
 10
243.223125347293
 20
804.6912637455285
 30
0.0
 11
243.4341324145832
 21
804.9008117819832
 31
0.0
 11
243.324902244428
 21
804.7995096232065
 31
0.0
 11
243.223125347293
 21
804.6912637455285
 31
0.0
  0
SPLINE
  5
13E
330
47
100
AcDbEntity
  8
0
  6
Continuous
 62
     7
100
AcDbSpline
210
0.0
220
0.0
230
1.0
 70
     8
 71
     3
 72
    11
 73
     7
 74
     5
 42
0.000000001
 43
0.0000000001
 44
0.00000001
 40
0.0
 40
0.0
 40
0.0
 40
0.0
 40
0.3675874814527109
 40
0.7551761016302915
 40
1.158247881684082
 40
1.571160534256732
 40
1.571160534256732
 40
1.571160534256732
 40
1.571160534256732
 10
242.822530743806
 20
801.8624866907796
 30
0.0
 10
242.8632611762787
 20
801.7467033459956
 30
0.0
 10
242.9469382761325
 20
801.508836668462
 30
0.0
 10
243.1372102265858
 20
801.1711197243901
 30
0.0
 10
243.369293679974
 20
800.8426103392377
 30
0.0
 10
243.5569088535233
 20
800.6452090306964
 30
0.0
 10
243.6518477769611
 20
800.54531803941
 30
0.0
 11
242.822530743806
 21
801.8624866907796
 31
0.0
 11
242.954289378321
 21
801.5193246017043
 31
0.0
 11
243.1400917716345
 21
801.1791740317351
 31
0.0
 11
243.3747821252315
 21
800.8514740183629
 31
0.0
 11
243.6518477769611
 21
800.54531803941
 31
0.0
  0
SPLINE
  5
13F
330
47
100
AcDbEntity
  8
0
  6
Continuous
 62
     7
100
AcDbSpline
210
0.0
220
0.0
230
1.0
 70
     8
 71
     3
 72
    11
 73
     7
 74
     5
 42
0.000000001
 43
0.0000000001
 44
0.00000001
 40
0.0
 40
0.0
 40
0.0
 40
0.0
 40
0.3880848429433436
 40
0.8164618936096781
 40
1.315250382941117
 40
1.898609795526467
 40
1.898609795526467
 40
1.898609795526467
 40
1.898609795526467
 10
245.0768032326616
 20
800.8017787837517
 30
0.0
 10
244.9735834030323
 20
800.882251533165
 30
0.0
 10
244.7564271234071
 20
801.0515519574758
 30
0.0
 10
244.314976078688
 20
801.1420665594791
 30
0.0
 10
243.8092146226363
 20
801.1283046556521
 30
0.0
 10
243.4588940236544
 20
801.0370269094706
 30
0.0
 10
243.2700447757475
 20
800.987821306447
 30
0.0
 11
245.0768032326616
 21
800.8017787837517
 31
0.0
 11
244.7542923343133
 21
801.0176411661162
 31
0.0
 11
244.3387703698276
 21
801.1217968114528
 31
0.0
 11
243.8400825149675
 21
801.1117776570305
 31
0.0
 11
243.2700447757475
 21
800.987821306447
 31
0.0
  0
SPLINE
  5
140
330
47
100
AcDbEntity
  8
0
  6
Continuous
 62
     7
100
AcDbSpline
210
0.0
220
0.0
230
1.0
 70
     8
 71
     3
 72
    11
 73
     7
 74
     5
 42
0.000000001
 43
0.0000000001
 44
0.00000001
 40
0.0
 40
0.0
 40
0.0
 40
0.0
 40
0.6722925996675632
 40
1.378443781888479
 40
2.142891624535263
 40
2.976668533459958
 40
2.976668533459958
 40
2.976668533459958
 40
2.976668533459958
 10
243.223125347293
 20
804.6912637455285
 30
0.0
 10
243.0903196559454
 20
804.5084959028887
 30
0.0
 10
242.8180198104631
 20
804.1337554973837
 30
0.0
 10
242.6406624659653
 20
803.4271393283786
 30
0.0
 10
242.6252672260292
 20
802.6523340263025
 30
0.0
 10
242.7549017694387
 20
802.1332745271964
 30
0.0
 10
242.822530743806
 20
801.8624866907796
 30
0.0
 11
243.223125347293
 21
804.6912637455285
 31
0.0
 11
242.8623421510497
 21
804.123978254853
 31
0.0
 11
242.6712860923616
 21
803.4441642515887
 31
0.0
 11
242.6578311368063
 21
802.6798348253128
 31
0.0
 11
242.822530743806
 21
801.8624866907796
 31
0.0
  0
SPLINE
  5
141
330
47
100
AcDbEntity
  8
0
  6
Continuous
 62
     7
100
AcDbSpline
210
0.0
220
0.0
230
1.0
 70
     8
 71
     3
 72
     9
 73
     5
 74
     3
 42
0.000000001
 43
0.0000000001
 44
0.00000001
 40
0.0
 40
0.0
 40
0.0
 40
0.0
 40
0.717516332930817
 40
1.304677190260059
 40
1.304677190260059
 40
1.304677190260059
 40
1.304677190260059
 10
247.6188050195189
 20
797.4059467147873
 30
0.0
 10
247.6270172226558
 20
797.6527462223272
 30
0.0
 10
247.6419496500861
 20
798.1015076935021
 30
0.0
 10
247.3863987902319
 20
798.467070891367
 30
0.0
 10
247.2713899026226
 20
798.631590051749
 30
0.0
 11
247.6188050195189
 21
797.4059467147873
 31
0.0
 11
247.5616332213787
 21
798.1211816947991
 31
0.0
 11
247.2713899026226
 21
798.631590051749
 31
0.0
  0
SPLINE
  5
142
330
47
100
AcDbEntity
  8
0
  6
Continuous
 62
     7
100
AcDbSpline
210
0.0
220
0.0
230
1.0
 70
     8
 71
     3
 72
    11
 73
     7
 74
     5
 42
0.000000001
 43
0.0000000001
 44
0.00000001
 40
0.0
 40
0.0
 40
0.0
 40
0.0
 40
0.4164490850549816
 40
0.8299010104789892
 40
1.234016075419327
 40
1.623080051140069
 40
1.623080051140069
 40
1.623080051140069
 40
1.623080051140069
 10
245.8464344444463
 20
798.3751293045859
 30
0.0
 10
245.9482715324403
 20
798.2805556681681
 30
0.0
 10
246.1512128026995
 20
798.0920890475294
 30
0.0
 10
246.4898304375337
 20
797.8567559592259
 30
0.0
 10
246.8416111578418
 20
797.6590974094771
 30
0.0
 10
247.0899103160738
 20
797.5671906155585
 30
0.0
 10
247.2117040788149
 20
797.5221092211099
 30
0.0
 11
245.8464344444463
 21
798.3751293045859
 31
0.0
 11
246.1581870506535
 21
798.0990131093906
 31
0.0
 11
246.4959755466662
 21
797.8605987064333
 31
0.0
 11
246.8504265150412
 21
797.6665020867819
 31
0.0
 11
247.2117040788149
 21
797.5221092211099
 31
0.0
  0
SPLINE
  5
143
330
47
100
AcDbEntity
  8
0
  6
Continuous
 62
     7
100
AcDbSpline
210
0.0
220
0.0
230
1.0
 70
     8
 71
     3
 72
    15
 73
    11
 74
     9
 42
0.000000001
 43
0.0000000001
 44
0.00000001
 40
0.0
 40
0.0
 40
0.0
 40
0.0
 40
1.501415214239556
 40
3.042149802715991
 40
4.645716597071637
 40
6.326606302014968
 40
8.08957471817447
 40
9.930389517815229
 40
11.83732935019921
 40
13.79295964350526
 40
13.79295964350526
 40
13.79295964350526
 40
13.79295964350526
 10
248.4221617827625
 20
787.755214807967
 30
0.0
 10
248.0888177579786
 20
787.3792560370158
 30
0.0
 10
247.4134000367531
 20
786.6174927996708
 30
0.0
 10
246.7300890304249
 20
785.2081804953064
 30
0.0
 10
246.3049577119186
 20
783.6496722717867
 30
0.0
 10
246.1699501726206
 20
781.9632035496013
 30
0.0
 10
246.3185137403891
 20
780.2005539826484
 30
0.0
 10
246.7512762205568
 20
778.4098011398972
 30
0.0
 10
247.4374406414267
 20
776.6278721248786
 30
0.0
 10
248.0911744705382
 20
775.516585854036
 30
0.0
 10
248.4221617827627
 20
774.9539384426624
 30
0.0
 11
248.4221617827625
 21
787.755214807967
 31
0.0
 11
247.4776574864192
 21
786.588099008029
 31
0.0
 11
246.783857038754
 21
785.212415896812
 31
0.0
 11
246.3598086620597
 21
783.6659329687981
 31
0.0
 11
246.2171534854269
 21
781.9911076923307
 31
0.0
 11
246.3598086620597
 21
780.2339204112333
 31
0.0
 11
246.7838570387541
 21
778.4426130387853
 31
0.0
 11
247.4776574864193
 21
776.666364052345
 31
0.0
 11
248.4221617827627
 21
774.9539384426624
 31
0.0
  0
SPLINE
  5
144
330
47
100
AcDbEntity
  8
0
  6
Continuous
 62
     7
100
AcDbSpline
210
0.0
220
0.0
230
1.0
 70
     8
 71
     3
 72
    15
 73
    11
 74
     9
 42
0.000000001
 43
0.0000000001
 44
0.00000001
 40
0.0
 40
0.0
 40
0.0
 40
0.0
 40
1.501415214239504
 40
3.042149802715951
 40
4.645716597071589
 40
6.32660630201492
 40
8.08957471817465
 40
9.9303895178152
 40
11.83732935019918
 40
13.79295964350522
 40
13.79295964350522
 40
13.79295964350522
 40
13.79295964350522
 10
254.4221617848807
 20
792.951367232508
 30
0.0
 10
254.0888177600967
 20
792.5754084615567
 30
0.0
 10
253.4134000388713
 20
791.813645224212
 30
0.0
 10
252.730089032543
 20
790.4043329198474
 30
0.0
 10
252.3049577140367
 20
788.8458246963274
 30
0.0
 10
252.1699501747387
 20
787.1593559741424
 30
0.0
 10
252.3185137425072
 20
785.3967064071894
 30
0.0
 10
252.7512762226751
 20
783.6059535644384
 30
0.0
 10
253.437440643545
 20
781.8240245494196
 30
0.0
 10
254.0911744726563
 20
780.712738278577
 30
0.0
 10
254.4221617848809
 20
780.1500908672035
 30
0.0
 11
254.4221617848807
 21
792.951367232508
 31
0.0
 11
253.4776574885373
 21
791.78425143257
 31
0.0
 11
252.7838570408721
 21
790.4085683213531
 31
0.0
 11
252.3598086641778
 21
788.8620853933392
 31
0.0
 11
252.2171534875451
 21
787.1872601168718
 31
0.0
 11
252.3598086641779
 21
785.4300728357741
 31
0.0
 11
252.7838570408723
 21
783.6387654633264
 31
0.0
 11
253.4776574885375
 21
781.8625164768861
 31
0.0
 11
254.4221617848809
 21
780.1500908672035
 31
0.0
  0
SPLINE
  5
145
330
47
100
AcDbEntity
  8
0
  6
Continuous
 62
     7
100
AcDbSpline
210
0.0
220
0.0
230
1.0
 70
     8
 71
     3
 72
    11
 73
     7
 74
     5
 42
0.000000001
 43
0.0000000001
 44
0.00000001
 40
0.0
 40
0.0
 40
0.0
 40
0.0
 40
0.1464886138160809
 40
0.2970820539964998
 40
0.4549882221388692
 40
0.6219861659043093
 40
0.6219861659043093
 40
0.6219861659043093
 40
0.6219861659043093
 10
166.6400684573159
 20
792.1580763362577
 30
0.0
 10
166.6054894414144
 20
792.1231890226502
 30
0.0
 10
166.5353624659126
 20
792.0524367919239
 30
0.0
 10
166.4678151954888
 20
791.914180050929
 30
0.0
 10
166.4284551495521
 20
791.7591698191068
 30
0.0
 10
166.4298571254653
 20
791.6504417302458
 30
0.0
 10
166.4305777366404
 20
791.5945564190868
 30
0.0
 11
166.6400684573159
 21
792.1580763362577
 31
0.0
 11
166.5426584660639
 21
792.0486678900675
 31
0.0
 11
166.473729297204
 21
791.9147755651048
 31
0.0
 11
166.4358914602974
 21
791.7614698029537
 31
0.0
 11
166.4305777366404
 21
791.5945564190868
 31
0.0
  0
SPLINE
  5
146
330
47
100
AcDbEntity
  8
0
  6
Continuous
 62
     7
100
AcDbSpline
210
0.0
220
0.0
230
1.0
 70
     8
 71
     3
 72
    17
 73
    13
 74
    11
 42
0.000000001
 43
0.0000000001
 44
0.00000001
 40
0.0
 40
0.0
 40
0.0
 40
0.0
 40
0.2272793172080234
 40
0.473720018612181
 40
0.7393887303600019
 40
1.018809627923504
 40
1.303145040565945
 40
1.582454312223034
 40
1.847925005766831
 40
2.094133631428184
 40
2.321219945569065
 40
2.536141304058533
 40
2.536141304058533
 40
2.536141304058533
 40
2.536141304058533
 10
168.0836495398386
 20
790.8172012853944
 30
0.0
 10
168.111389966175
 20
790.8884177622222
 30
0.0
 10
168.1692095348866
 20
791.0368548138131
 30
0.0
 10
168.1605990726599
 20
791.2889914557086
 30
0.0
 10
168.0898442328936
 20
791.5447084717814
 30
0.0
 10
167.955257021638
 20
791.7891694128639
 30
0.0
 10
167.769747219987
 20
792.0029326233798
 30
0.0
 10
167.5468842581948
 20
792.1699188131219
 30
0.0
 10
167.3029504994421
 20
792.2776374204191
 30
0.0
 10
167.0574366161773
 20
792.3149650496842
 30
0.0
 10
166.8229810989214
 20
792.2830580392272
 30
0.0
 10
166.6999102821228
 20
792.1989654410286
 30
0.0
 10
166.6400684573159
 20
792.1580763362577
 30
0.0
 11
168.0836495398386
 21
790.8172012853944
 31
0.0
 11
168.1522917902833
 21
791.0338672275806
 31
0.0
 11
168.1516029754386
 21
791.280306968961
 31
0.0
 11
168.0816373759701
 21
791.5365971943929
 31
0.0
 11
167.9480529049324
 21
791.7820177043818
 31
0.0
 11
167.7616481990786
 21
791.9967266056391
 31
0.0
 11
167.5374944347026
 21
792.1633662150116
 31
0.0
 11
167.2937131084562
 21
792.268463098261
 31
0.0
 11
167.050013357305
 21
792.3035219082735
 31
0.0
 11
166.8260977265225
 21
792.2657067386992
 31
0.0
 11
166.6400684573159
 21
792.1580763362577
 31
0.0
  0
SPLINE
  5
147
330
47
100
AcDbEntity
  8
0
  6
Continuous
 62
     7
100
AcDbSpline
210
0.0
220
0.0
230
1.0
 70
     8
 71
     3
 72
     9
 73
     5
 74
     3
 42
0.000000001
 43
0.0000000001
 44
0.00000001
 40
0.0
 40
0.0
 40
0.0
 40
0.0
 40
3.205772716498627
 40
6.514213803793633
 40
6.514213803793633
 40
6.514213803793633
 40
6.514213803793633
 10
179.0512907774886
 20
794.7877356328727
 30
0.0
 10
178.7004740619131
 20
793.7754476181751
 30
0.0
 10
177.9876053616885
 20
791.7184519547332
 30
0.0
 10
177.6862115205375
 20
789.5621783257361
 30
0.0
 10
177.5331395255123
 20
788.4670493511686
 30
0.0
 11
179.0512907774886
 21
794.7877356328727
 31
0.0
 11
178.0984923475402
 21
791.7268282729709
 31
0.0
 11
177.5331395255123
 21
788.4670493511686
 31
0.0
  0
SPLINE
  5
148
330
47
100
AcDbEntity
  8
0
  6
Continuous
 62
     7
100
AcDbSpline
210
0.0
220
0.0
230
1.0
 70
     8
 71
     3
 72
     9
 73
     5
 74
     3
 42
0.000000001
 43
0.0000000001
 44
0.00000001
 40
0.0
 40
0.0
 40
0.0
 40
0.0
 40
0.071062445535857
 40
0.1440054971475475
 40
0.1440054971475475
 40
0.1440054971475475
 40
0.1440054971475475
 10
179.1328388685206
 20
794.9051153032739
 30
0.0
 10
179.1158483163926
 20
794.8883009083485
 30
0.0
 10
179.0814175873436
 20
794.8542271278088
 30
0.0
 10
179.0614200926208
 20
794.8100915938868
 30
0.0
 10
179.0512907774886
 20
794.7877356328727
 30
0.0
 11
179.1328388685206
 21
794.9051153032739
 31
0.0
 11
179.0853818994216
 21
794.852221944304
 31
0.0
 11
179.0512907774886
 21
794.7877356328727
 31
0.0
  0
SPLINE
  5
149
330
47
100
AcDbEntity
  8
0
  6
Continuous
 62
     7
100
AcDbSpline
210
0.0
220
0.0
230
1.0
 70
     8
 71
     3
 72
    11
 73
     7
 74
     5
 42
0.000000001
 43
0.0000000001
 44
0.00000001
 40
0.0
 40
0.0
 40
0.0
 40
0.0
 40
0.0935705952109023
 40
0.1815181363975636
 40
0.2647690944695527
 40
0.3453217744505888
 40
0.3453217744505888
 40
0.3453217744505888
 40
0.3453217744505888
 10
179.4601657038745
 20
794.9601635321568
 30
0.0
 10
179.4296353966182
 20
794.9672039324735
 30
0.0
 10
179.3704094754706
 20
794.9808616311936
 30
0.0
 10
179.2813771998642
 20
794.9763881421188
 30
0.0
 10
179.1991399643474
 20
794.9534235276558
 30
0.0
 10
179.1546951903435
 20
794.9210402360866
 30
0.0
 10
179.1328388685206
 20
794.9051153032739
 30
0.0
 11
179.4601657038745
 21
794.9601635321568
 31
0.0
 11
179.3680932627325
 21
794.9768405204376
 31
0.0
 11
179.2802317760813
 21
794.9729508462423
 31
0.0
 11
179.2005996657664
 21
794.9486722651454
 31
0.0
 11
179.1328388685206
 21
794.9051153032739
 31
0.0
  0
SPLINE
  5
14A
330
47
100
AcDbEntity
  8
0
  6
Continuous
 62
     7
100
AcDbSpline
210
0.0
220
0.0
230
1.0
 70
     8
 71
     3
 72
    15
 73
    11
 74
     9
 42
0.000000001
 43
0.0000000001
 44
0.00000001
 40
0.0
 40
0.0
 40
0.0
 40
0.0
 40
0.1050430318555049
 40
0.2168189174504899
 40
0.3378303603009427
 40
0.467614385668645
 40
0.6034065486166259
 40
0.7410862550344824
 40
0.876137565560581
 40
1.004598997576632
 40
1.004598997576632
 40
1.004598997576632
 40
1.004598997576632
 10
180.9948343130982
 20
793.8257601843568
 30
0.0
 10
181.0161745620918
 20
793.8539775051778
 30
0.0
 10
181.0602228759336
 20
793.9122207758287
 30
0.0
 10
181.0842295480828
 20
794.025458182497
 30
0.0
 10
181.0772917414656
 20
794.1470010031269
 30
0.0
 10
181.0378229259201
 20
794.2710390756513
 30
0.0
 10
180.9700152736009
 20
794.3882975389619
 30
0.0
 10
180.8783156442169
 20
794.4898876098331
 30
0.0
 10
180.7703181492403
 20
794.5715924904762
 30
0.0
 10
180.6876506513957
 20
794.6024230241197
 30
0.0
 10
180.6473505664745
 20
794.6174527821569
 30
0.0
 11
180.9948343130982
 21
793.8257601843568
 31
0.0
 11
181.0521326262838
 21
793.9137996235904
 31
0.0
 11
181.0787323688057
 21
794.0223643676945
 31
0.0
 11
181.0726156115427
 21
794.1432211231602
 31
0.0
 11
181.0342468591122
 21
794.2672039140731
 31
0.0
 11
180.9665354399153
 21
794.3849097991537
 31
0.0
 11
180.8746171193633
 21
794.4874121106516
 31
0.0
 11
180.7654626379708
 21
794.566936669464
 31
0.0
 11
180.6473505664745
 21
794.6174527821569
 31
0.0
  0
SPLINE
  5
14B
330
47
100
AcDbEntity
  8
0
  6
Continuous
 62
     7
100
AcDbSpline
210
0.0
220
0.0
230
1.0
 70
     8
 71
     3
 72
    11
 73
     7
 74
     5
 42
0.000000001
 43
0.0000000001
 44
0.00000001
 40
0.0
 40
0.0
 40
0.0
 40
0.0
 40
0.2795347897102848
 40
0.5520929976560669
 40
0.8147587927115809
 40
1.065586133061433
 40
1.065586133061433
 40
1.065586133061433
 40
1.065586133061433
 10
206.682150546254
 20
783.2315500709809
 30
0.0
 10
206.7535534348471
 20
783.1714151062203
 30
0.0
 10
206.8945771599672
 20
783.0526460266849
 30
0.0
 10
207.1308194542741
 20
782.9165368972542
 30
0.0
 10
207.3739043147235
 20
782.8146833134772
 30
0.0
 10
207.5425572068842
 20
782.7830552613481
 30
0.0
 10
207.6249395296909
 20
782.767605830833
 30
0.0
 11
206.682150546254
 21
783.2315500709809
 31
0.0
 11
206.901244803247
 21
783.0579487882205
 31
0.0
 11
207.1363658146311
 21
782.9200862207426
 31
0.0
 11
207.3801442886455
 21
782.8222834784176
 31
0.0
 11
207.6249395296909
 21
782.767605830833
 31
0.0
  0
SPLINE
  5
14C
330
47
100
AcDbEntity
  8
0
  6
Continuous
 62
     7
100
AcDbSpline
210
0.0
220
0.0
230
1.0
 70
     8
 71
     3
 72
     9
 73
     5
 74
     3
 42
0.000000001
 43
0.0000000001
 44
0.00000001
 40
0.0
 40
0.0
 40
0.0
 40
0.0
 40
0.2487693243451767
 40
0.4962423627254967
 40
0.4962423627254967
 40
0.4962423627254967
 40
0.4962423627254967
 10
206.682150546254
 20
783.2315500709809
 30
0.0
 10
206.7541583869317
 20
783.2729849557909
 30
0.0
 10
206.897798839307
 20
783.355638833438
 30
0.0
 10
207.0260388097079
 20
783.4606060330759
 30
0.0
 10
207.0899912945942
 20
783.5129525430879
 30
0.0
 11
206.682150546254
 21
783.2315500709809
 31
0.0
 11
206.8943038016983
 21
783.3614622459738
 31
0.0
 11
207.0899912945942
 21
783.5129525430879
 31
0.0
  0
SPLINE
  5
14D
330
47
100
AcDbEntity
  8
0
  6
Continuous
 62
     7
100
AcDbSpline
210
0.0
220
0.0
230
1.0
 70
     8
 71
     3
 72
    11
 73
     7
 74
     5
 42
0.000000001
 43
0.0000000001
 44
0.00000001
 40
0.0
 40
0.0
 40
0.0
 40
0.0
 40
0.5436954332633451
 40
1.100611007614051
 40
1.68144786085432
 40
2.292782332831437
 40
2.292782332831437
 40
2.292782332831437
 40
2.292782332831437
 10
207.0899912945942
 20
783.5129525430879
 30
0.0
 10
207.2189643095767
 20
783.6416043331333
 30
0.0
 10
207.4800463515726
 20
783.9020361354721
 30
0.0
 10
207.7434981103239
 20
784.4047479494047
 30
0.0
 10
207.9112353747593
 20
784.9681319918436
 30
0.0
 10
207.9271459012663
 20
785.3666542077542
 30
0.0
 10
207.9353046651936
 20
785.571012729193
 30
0.0
 11
207.0899912945942
 21
783.5129525430879
 31
0.0
 11
207.4552803087025
 21
783.915654246667
 31
0.0
 11
207.7231808424131
 21
784.4039003563939
 31
0.0
 11
207.8849487684189
 21
784.9617557055146
 31
0.0
 11
207.9353046651936
 21
785.571012729193
 31
0.0
  0
SPLINE
  5
14E
330
47
100
AcDbEntity
  8
0
  6
Continuous
 62
     7
100
AcDbSpline
210
0.0
220
0.0
230
1.0
 70
     8
 71
     3
 72
     9
 73
     5
 74
     3
 42
0.000000001
 43
0.0000000001
 44
0.00000001
 40
0.0
 40
0.0
 40
0.0
 40
0.0
 40
0.0223117672475266
 40
0.0446474807739752
 40
0.0446474807739752
 40
0.0446474807739752
 40
0.0446474807739752
 10
185.867770113064
 20
792.4381718122202
 30
0.0
 10
185.8622068641426
 20
792.4332316314109
 30
0.0
 10
185.8510744091379
 20
792.423345953091
 30
0.0
 10
185.8407060526926
 20
792.4126615909984
 30
0.0
 10
185.8355191009838
 20
792.4073165375811
 30
0.0
 11
185.867770113064
 21
792.4381718122202
 31
0.0
 11
185.8512711928042
 21
792.4231518055951
 31
0.0
 11
185.8355191009838
 21
792.4073165375811
 31
0.0
  0
SPLINE
  5
14F
330
47
100
AcDbEntity
  8
0
  6
Continuous
 62
     7
100
AcDbSpline
210
0.0
220
0.0
230
1.0
 70
     8
 71
     3
 72
    15
 73
    11
 74
     9
 42
0.000000001
 43
0.0000000001
 44
0.00000001
 40
0.0
 40
0.0
 40
0.0
 40
0.0
 40
0.21849275813588
 40
0.4521154141152595
 40
0.6934607740145706
 40
0.9331119314600258
 40
1.162078974506992
 40
1.374248940936817
 40
1.56879962101372
 40
1.751796470210188
 40
1.751796470210188
 40
1.751796470210188
 40
1.751796470210188
 10
187.0843134438217
 20
791.633428668513
 30
0.0
 10
187.0776381811784
 20
791.7063936523753
 30
0.0
 10
187.0638254013612
 20
791.857376200727
 30
0.0
 10
186.9662223448776
 20
792.0711681672976
 30
0.0
 10
186.8236873015804
 20
792.2637170035737
 30
0.0
 10
186.6417008090113
 20
792.4183852008009
 30
0.0
 10
186.4369628580868
 20
792.5223680798836
 30
0.0
 10
186.2273124661769
 20
792.5641402260726
 30
0.0
 10
186.0249084373344
 20
792.5437282939979
 30
0.0
 10
185.9190699175976
 20
792.4726320736173
 30
0.0
 10
185.867770113064
 20
792.4381718122202
 30
0.0
 11
187.0843134438217
 21
791.633428668513
 31
0.0
 11
187.052651968636
 21
791.8496152450488
 31
0.0
 11
186.9605630315538
 21
792.0643224242962
 31
0.0
 11
186.8164618129208
 21
792.2579261987185
 31
0.0
 11
186.6335200336427
 21
792.4127324742149
 31
0.0
 11
186.4284572936402
 21
792.5145911022397
 31
0.0
 11
186.2200161620975
 21
792.5541940143345
 31
0.0
 11
186.0272478063306
 21
792.5279198711817
 31
0.0
 11
185.867770113064
 21
792.4381718122202
 31
0.0
  0
SPLINE
  5
150
330
47
100
AcDbEntity
  8
0
  6
Continuous
 62
     7
100
AcDbSpline
210
0.0
220
0.0
230
1.0
 70
     8
 71
     3
 72
     9
 73
     5
 74
     3
 42
0.000000001
 43
0.0000000001
 44
0.00000001
 40
0.0
 40
0.0
 40
0.0
 40
0.0
 40
0.1385816879124963
 40
0.2771226591253448
 40
0.2771226591253448
 40
0.2771226591253448
 40
0.2771226591253448
 10
178.6679437774886
 20
784.406890090679
 30
0.0
 10
178.7042021811189
 20
784.4355196585378
 30
0.0
 10
178.7767083226999
 20
784.492770398132
 30
0.0
 10
178.8469347702456
 20
784.5527956693481
 30
0.0
 10
178.8820428285542
 20
784.5828039029836
 30
0.0
 11
178.6679437774886
 21
784.406890090679
 31
0.0
 11
178.7761488911366
 21
784.4934726388109
 31
0.0
 11
178.8820428285542
 21
784.5828039029836
 31
0.0
  0
SPLINE
  5
151
330
47
100
AcDbEntity
  8
0
  6
Continuous
 62
     7
100
AcDbSpline
210
0.0
220
0.0
230
1.0
 70
     8
 71
     3
 72
    11
 73
     7
 74
     5
 42
0.000000001
 43
0.0000000001
 44
0.00000001
 40
0.0
 40
0.0
 40
0.0
 40
0.0
 40
0.8846695365102712
 40
1.77970195675881
 40
2.694491100618943
 40
3.636679298346001
 40
3.636679298346001
 40
3.636679298346001
 40
3.636679298346001
 10
178.8820428285542
 20
784.5828039029836
 30
0.0
 10
179.0960157560547
 20
784.7867889262224
 30
0.0
 10
179.5264680464622
 20
785.1971484324064
 30
0.0
 10
180.0357201964042
 20
785.943511815729
 30
0.0
 10
180.4457329946946
 20
786.7689983268112
 30
0.0
 10
180.611930002017
 20
787.3666004231246
 30
0.0
 10
180.6962545880136
 20
787.6698101789983
 30
0.0
 11
178.8820428285542
 21
784.5828039029836
 31
0.0
 11
179.5007114977547
 21
785.2151718878818
 31
0.0
 11
180.0142761949964
 21
785.9482028135633
 31
0.0
 11
180.4148428848326
 21
786.7706294105761
 31
0.0
 11
180.6962545880136
 21
787.6698101789983
 31
0.0
  0
SPLINE
  5
152
330
47
100
AcDbEntity
  8
0
  6
Continuous
 62
     7
100
AcDbSpline
210
0.0
220
0.0
230
1.0
 70
     8
 71
     3
 72
     9
 73
     5
 74
     3
 42
0.000000001
 43
0.0000000001
 44
0.00000001
 40
0.0
 40
0.0
 40
0.0
 40
0.0
 40
3.443619827831717
 40
7.001532092649057
 40
7.001532092649057
 40
7.001532092649057
 40
7.001532092649057
 10
169.6764887898091
 20
790.5232841766282
 30
0.0
 10
170.0487550724521
 20
791.6124261973939
 30
0.0
 10
170.8056429953376
 20
793.8268584550269
 30
0.0
 10
171.1073287719651
 20
796.147798880202
 30
0.0
 10
171.2606339973162
 20
797.3272125155718
 30
0.0
 11
169.6764887898091
 21
790.5232841766282
 31
0.0
 11
170.6831721088195
 21
793.8164750636647
 31
0.0
 11
171.2606339973162
 21
797.3272125155718
 31
0.0
  0
SPLINE
  5
153
330
47
100
AcDbEntity
  8
0
  6
Continuous
 62
     7
100
AcDbSpline
210
0.0
220
0.0
230
1.0
 70
     8
 71
     3
 72
     9
 73
     5
 74
     3
 42
0.000000001
 43
0.0000000001
 44
0.00000001
 40
0.0
 40
0.0
 40
0.0
 40
0.0
 40
1.569054874187086
 40
3.19316041928431
 40
3.19316041928431
 40
3.19316041928431
 40
3.19316041928431
 10
184.8820428306724
 20
789.7789563275246
 30
0.0
 10
185.253778151759
 20
790.1557375301257
 30
0.0
 10
186.0102912021212
 20
790.9225194070261
 30
0.0
 10
186.3893624017321
 20
791.9313438862351
 30
0.0
 10
186.5821656212543
 20
792.4444522901148
 30
0.0
 11
184.8820428306724
 21
789.7789563275246
 31
0.0
 11
185.9061138613579
 21
790.9677421479008
 31
0.0
 11
186.5821656212543
 21
792.4444522901148
 31
0.0
  0
ENDBLK
  5
49
330
47
100
AcDbEntity
  8
0
100
AcDbBlockEnd
  0
BLOCK
  5
4C
330
4A
100
AcDbEntity
  8
0
100
AcDbBlockBegin
  2
AllgSicht1
 70
     0
 10
210.3768280000024
 20
800.0
 30
0.0
  3
AllgSicht1
  1

  0
INSERT
  5
4B
330
4A
100
AcDbEntity
  8
0
100
AcDbBlockReference
  2
STN-16-Select__1
 10
166.4231413319554
 20
772.9576856506031
 30
0.0
  0
MTEXT
  5
155
330
4A
100
AcDbEntity
  8
1
 62
     6
100
AcDbMText
 10
210.3768279999977
 20
759.2056307038256
 30
0.0
 40
5.0
 41
0.0
 71
     2
 72
     1
  1
 
  7
CONVERTER_11
 73
     1
 44
1.32052821128451
  0
ENDBLK
  5
4D
330
4A
100
AcDbEntity
  8
0
100
AcDbBlockEnd
  0
BLOCK
  5
4F
330
4E
100
AcDbEntity
  8
0
100
AcDbBlockBegin
  2
STN-16-Select__2
 70
     0
 10
34.36710321706416
 20
781.3749999957537
 30
0.0
  3
STN-16-Select__2
  1

  0
LINE
  5
156
330
4E
100
AcDbEntity
  8
0
  6
Continuous
 62
     7
100
AcDbLine
 10
103.5361455464712
 20
781.3749999957537
 30
0.0
 11
103.5361455464712
 21
793.37499999999
 31
0.0
  0
LINE
  5
157
330
4E
100
AcDbEntity
  8
0
  6
Continuous
 62
     7
100
AcDbLine
 10
104.4678543581909
 20
781.3749999957537
 30
0.0
 11
104.4678543581909
 21
793.37499999999
 31
0.0
  0
LINE
  5
158
330
4E
100
AcDbEntity
  8
0
  6
Continuous
 62
     7
100
AcDbLine
 10
129.0450014637214
 20
781.3749999957537
 30
0.0
 11
129.0450014637214
 21
793.37499999999
 31
0.0
  0
LINE
  5
159
330
4E
100
AcDbEntity
  8
0
  6
Continuous
 62
     2
100
AcDbLine
 10
121.692321868887
 20
782.9109525479058
 30
0.0
 11
126.7605026818515
 21
782.9109525478881
 31
0.0
  0
LINE
  5
15A
330
4E
100
AcDbEntity
  8
0
  6
Continuous
 62
     7
100
AcDbLine
 10
123.3251719040886
 20
786.8390473454235
 30
0.0
 11
123.3251719040886
 21
787.9109525479236
 31
0.0
  0
LINE
  5
15B
330
4E
100
AcDbEntity
  8
0
  6
Continuous
 62
     2
100
AcDbLine
 10
123.3251719040886
 20
787.9109525479236
 30
0.0
 11
128.3221724920908
 21
787.9109525479236
 31
0.0
  0
LINE
  5
15C
330
4E
100
AcDbEntity
  8
0
  6
Continuous
 62
     2
100
AcDbLine
 10
116.7226120376948
 20
787.7285533559138
 30
0.0
 11
117.2801584622142
 21
787.728553355914
 31
0.0
  0
LINE
  5
15D
330
4E
100
AcDbEntity
  8
0
  6
Continuous
 62
     2
100
AcDbLine
 10
116.7226120376948
 20
787.0214465747273
 30
0.0
 11
117.2801584622142
 21
787.0214465747273
 31
0.0
  0
LINE
  5
15E
330
4E
100
AcDbEntity
  8
0
  6
Continuous
 62
     7
100
AcDbLine
 10
111.600906333071
 20
783.3749999653205
 30
0.0
 11
115.7980988746906
 21
783.3749999653205
 31
0.0
  0
LINE
  5
15F
330
4E
100
AcDbEntity
  8
0
  6
Continuous
 62
     7
100
AcDbLine
 10
115.7980988746906
 20
783.3749999653205
 30
0.0
 11
115.7980988746906
 21
791.3749999653205
 31
0.0
  0
LINE
  5
160
330
4E
100
AcDbEntity
  8
0
  6
Continuous
 62
     7
100
AcDbLine
 10
120.1306520586363
 20
786.8390473454235
 30
0.0
 11
120.1306520586363
 21
787.9109525479236
 31
0.0
  0
LINE
  5
161
330
4E
100
AcDbEntity
  8
0
  6
Continuous
 62
     7
100
AcDbLine
 10
120.5086964425994
 20
790.0090662455884
 30
0.0
 11
120.5086964425994
 21
784.7409336477587
 31
0.0
  0
LINE
  5
162
330
4E
100
AcDbEntity
  8
0
  6
Continuous
 62
     7
100
AcDbLine
 10
109.7826143664023
 20
791.3749999653205
 30
0.0
 11
109.7826143664023
 21
783.3749999653205
 31
0.0
  0
LINE
  5
163
330
4E
100
AcDbEntity
  8
0
  6
Continuous
 62
     7
100
AcDbLine
 10
88.70761177170051
 20
782.7250004053205
 30
0.0
 11
88.70761177170051
 21
791.9749998246144
 31
0.0
  0
LINE
  5
164
330
4E
100
AcDbEntity
  8
0
  6
Continuous
 62
     7
100
AcDbLine
 10
109.8506340320439
 20
791.3749999653205
 30
0.0
 11
109.8506340320439
 21
783.3749999653205
 31
0.0
  0
LINE
  5
165
330
4E
100
AcDbEntity
  8
0
  6
Continuous
 62
     7
100
AcDbLine
 10
111.600906333071
 20
793.37499999999
 30
0.0
 11
129.0450014637214
 21
793.37499999999
 31
0.0
  0
LINE
  5
166
330
4E
100
AcDbEntity
  8
0
  6
Continuous
 62
     7
100
AcDbLine
 10
51.27703263706412
 20
789.0749999653206
 30
0.0
 11
51.27703263706412
 21
785.5749999653206
 31
0.0
  0
LINE
  5
167
330
4E
100
AcDbEntity
  8
0
  6
Continuous
 62
     7
100
AcDbLine
 10
38.04475937706411
 20
785.5749999653206
 30
0.0
 11
38.04475937706411
 21
789.0749999653206
 31
0.0
  0
LINE
  5
168
330
4E
100
AcDbEntity
  8
0
  6
Continuous
 62
     7
100
AcDbLine
 10
88.70761177170051
 20
791.9749998246144
 30
0.0
 11
86.90761203938233
 21
791.9749998246144
 31
0.0
  0
LINE
  5
169
330
4E
100
AcDbEntity
  8
0
  6
Continuous
 62
     7
100
AcDbLine
 10
93.90785446372135
 20
791.9749998246144
 30
0.0
 11
88.70761177170051
 21
791.9749998246144
 31
0.0
  0
LINE
  5
16A
330
4E
100
AcDbEntity
  8
0
  6
Continuous
 62
     7
100
AcDbLine
 10
86.90761203938233
 20
791.9749998246144
 30
0.0
 11
81.70761238006638
 21
791.9749998246144
 31
0.0
  0
LINE
  5
16B
330
4E
100
AcDbEntity
  8
0
  6
Continuous
 62
     7
100
AcDbLine
 10
38.04475937706411
 20
789.0749999653206
 30
0.0
 11
51.27703263706412
 21
789.0749999653206
 31
0.0
  0
LINE
  5
16C
330
4E
100
AcDbEntity
  8
0
  6
Continuous
 62
     7
100
AcDbLine
 10
125.493457478596
 20
782.3749999466736
 30
0.0
 11
122.959367072131
 21
782.3749999466736
 31
0.0
  0
LINE
  5
16D
330
4E
100
AcDbEntity
  8
0
  6
Continuous
 62
     2
100
AcDbLine
 10
123.3251719040886
 20
786.8390473454235
 30
0.0
 11
128.3221724920908
 21
786.8390473454235
 31
0.0
  0
LINE
  5
16E
330
4E
100
AcDbEntity
  8
0
  6
Continuous
 62
     7
100
AcDbLine
 10
128.3221724920908
 20
787.9109525479236
 30
0.0
 11
128.3221724920908
 21
786.8390473454235
 31
0.0
  0
LINE
  5
16F
330
4E
100
AcDbEntity
  8
0
  6
Continuous
 62
     7
100
AcDbLine
 10
86.90761203938233
 20
782.7250003053206
 30
0.0
 11
81.70761238006638
 21
782.7250003053206
 31
0.0
  0
LINE
  5
170
330
4E
100
AcDbEntity
  8
0
  6
Continuous
 62
     7
100
AcDbLine
 10
81.70761238006638
 20
782.0250009554331
 30
0.0
 11
93.90785446372135
 21
782.0250009554331
 31
0.0
  0
LINE
  5
171
330
4E
100
AcDbEntity
  8
0
  6
Continuous
 62
     7
100
AcDbLine
 10
111.600906333071
 20
781.3749999957537
 30
0.0
 11
129.0450014637214
 21
781.3749999957537
 31
0.0
  0
LINE
  5
172
330
4E
100
AcDbEntity
  8
0
  6
Continuous
 62
     7
100
AcDbLine
 10
103.5361455464712
 20
781.3749999957537
 30
0.0
 11
104.4678543581909
 21
781.3749999957537
 31
0.0
  0
LINE
  5
173
330
4E
100
AcDbEntity
  8
0
  6
Continuous
 62
     7
100
AcDbLine
 10
98.27956345974971
 20
781.3749999957537
 30
0.0
 11
103.5361455464712
 21
781.3749999957537
 31
0.0
  0
LINE
  5
174
330
4E
100
AcDbEntity
  8
0
  6
Continuous
 62
     7
100
AcDbLine
 10
109.7826143664023
 20
783.3749999653205
 30
0.0
 11
109.8506340320439
 21
783.3749999653205
 31
0.0
  0
LINE
  5
175
330
4E
100
AcDbEntity
  8
0
  6
Continuous
 62
     7
100
AcDbLine
 10
109.8506340320439
 20
783.3749999653205
 30
0.0
 11
111.600906333071
 21
783.3749999653205
 31
0.0
  0
LINE
  5
176
330
4E
100
AcDbEntity
  8
0
  6
Continuous
 62
     7
100
AcDbLine
 10
111.600906333071
 20
781.3749999957537
 30
0.0
 11
111.600906333071
 21
783.3749999653205
 31
0.0
  0
LINE
  5
177
330
4E
100
AcDbEntity
  8
0
  6
Continuous
 62
     7
100
AcDbLine
 10
81.70761238006638
 20
781.3749999957537
 30
0.0
 11
93.90785446372135
 21
781.3749999957537
 31
0.0
  0
LINE
  5
178
330
4E
100
AcDbEntity
  8
0
  6
Continuous
 62
     7
100
AcDbLine
 10
68.79785453819093
 20
781.3749999957537
 30
0.0
 11
69.7295636714113
 21
781.3749999957537
 31
0.0
  0
LINE
  5
179
330
4E
100
AcDbEntity
  8
0
  6
Continuous
 62
     7
100
AcDbLine
 10
75.9175938102014
 20
781.3749999957537
 30
0.0
 11
81.70761238006638
 21
781.3749999957537
 31
0.0
  0
LINE
  5
17A
330
4E
100
AcDbEntity
  8
0
  6
Continuous
 62
     7
100
AcDbLine
 10
69.7295636714113
 20
781.3749999957537
 30
0.0
 11
74.98614573058528
 21
781.3749999957537
 31
0.0
  0
LINE
  5
17B
330
4E
100
AcDbEntity
  8
0
  6
Continuous
 62
     7
100
AcDbLine
 10
66.90785446372135
 20
781.3749999957537
 30
0.0
 11
68.79785453819093
 21
781.3749999957537
 31
0.0
  0
LINE
  5
17C
330
4E
100
AcDbEntity
  8
0
  6
Continuous
 62
     7
100
AcDbLine
 10
104.4678543581909
 20
781.3749999957537
 30
0.0
 11
111.600906333071
 21
781.3749999957537
 31
0.0
  0
LINE
  5
17D
330
4E
100
AcDbEntity
  8
0
  6
Continuous
 62
     7
100
AcDbLine
 10
65.90785427672216
 20
782.2249999699998
 30
0.0
 11
65.90785427672216
 21
790.3249999699998
 31
0.0
  0
LINE
  5
17E
330
4E
100
AcDbEntity
  8
0
  6
Continuous
 62
     7
100
AcDbLine
 10
53.95775050372215
 20
790.3249999699998
 30
0.0
 11
53.95775050372215
 21
782.2249999699998
 31
0.0
  0
LINE
  5
17F
330
4E
100
AcDbEntity
  8
0
  6
Continuous
 62
     7
100
AcDbLine
 10
81.70761238006638
 20
781.3749999957537
 30
0.0
 11
81.70761238006638
 21
782.0250009554331
 31
0.0
  0
LINE
  5
180
330
4E
100
AcDbEntity
  8
0
  6
Continuous
 62
     7
100
AcDbLine
 10
81.70761238006638
 20
782.0250009554331
 30
0.0
 11
81.70761238006638
 21
782.7250003053206
 31
0.0
  0
LINE
  5
181
330
4E
100
AcDbEntity
  8
0
  6
Continuous
 62
     7
100
AcDbLine
 10
65.90785427672216
 20
790.3249999699998
 30
0.0
 11
53.95775050372215
 21
790.3249999699998
 31
0.0
  0
LINE
  5
182
330
4E
100
AcDbEntity
  8
0
  6
Continuous
 62
     7
100
AcDbLine
 10
81.70761238006638
 20
791.9749998246144
 30
0.0
 11
81.70761238006638
 21
793.37499999999
 31
0.0
  0
LINE
  5
183
330
4E
100
AcDbEntity
  8
0
  6
Continuous
 62
     7
100
AcDbLine
 10
81.70761238006638
 20
782.7250003053206
 30
0.0
 11
81.70761238006638
 21
791.9749998246144
 31
0.0
  0
LINE
  5
184
330
4E
100
AcDbEntity
  8
0
  6
Continuous
 62
     7
100
AcDbLine
 10
36.16392696372136
 20
781.3749999957537
 30
0.0
 11
34.36710321706416
 21
781.3749999957537
 31
0.0
  0
LINE
  5
185
330
4E
100
AcDbEntity
  8
0
  6
Continuous
 62
     7
100
AcDbLine
 10
36.16392696372136
 20
781.3749999957537
 30
0.0
 11
37.04500146372238
 21
781.3749999957537
 31
0.0
  0
LINE
  5
186
330
4E
100
AcDbEntity
  8
0
  6
Continuous
 62
     7
100
AcDbLine
 10
37.04500146372238
 20
781.3749999957537
 30
0.0
 11
51.65775097042285
 21
781.3749999957537
 31
0.0
  0
LINE
  5
187
330
4E
100
AcDbEntity
  8
0
  6
Continuous
 62
     7
100
AcDbLine
 10
37.04500146372238
 20
793.37499999999
 30
0.0
 11
51.65775097042285
 21
793.37499999999
 31
0.0
  0
LINE
  5
188
330
4E
100
AcDbEntity
  8
0
  6
Continuous
 62
     7
100
AcDbLine
 10
37.04500146372238
 20
781.3749999957537
 30
0.0
 11
37.04500146372238
 21
793.37499999999
 31
0.0
  0
LINE
  5
189
330
4E
100
AcDbEntity
  8
0
  6
Continuous
 62
     7
100
AcDbLine
 10
51.65775097042285
 20
781.3749999957537
 30
0.0
 11
51.65775097042285
 21
793.37499999999
 31
0.0
  0
LINE
  5
18A
330
4E
100
AcDbEntity
  8
0
  6
Continuous
 62
     7
100
AcDbLine
 10
51.65775097042285
 20
781.3749999957537
 30
0.0
 11
52.95775052468865
 21
781.3749999957537
 31
0.0
  0
LINE
  5
18B
330
4E
100
AcDbEntity
  8
0
  6
Continuous
 62
     7
100
AcDbLine
 10
52.95775052468865
 20
781.3749999957537
 30
0.0
 11
52.95775052468864
 21
793.37499999999
 31
0.0
  0
LINE
  5
18C
330
4E
100
AcDbEntity
  8
0
  6
Continuous
 62
     7
100
AcDbLine
 10
66.90785446372135
 20
781.3749999957537
 30
0.0
 11
66.90785446372135
 21
793.37499999999
 31
0.0
  0
LINE
  5
18D
330
4E
100
AcDbEntity
  8
0
  6
Continuous
 62
     7
100
AcDbLine
 10
68.79785453819093
 20
793.37499999999
 30
0.0
 11
69.7295636714113
 21
793.37499999999
 31
0.0
  0
LINE
  5
18E
330
4E
100
AcDbEntity
  8
0
  6
Continuous
 62
     7
100
AcDbLine
 10
69.7295636714113
 20
781.3749999957537
 30
0.0
 11
69.7295636714113
 21
793.37499999999
 31
0.0
  0
LINE
  5
18F
330
4E
100
AcDbEntity
  8
0
  6
Continuous
 62
     7
100
AcDbLine
 10
74.98614573058528
 20
793.37499999999
 30
0.0
 11
75.9175938102014
 21
793.37499999999
 31
0.0
  0
LINE
  5
190
330
4E
100
AcDbEntity
  8
0
  6
Continuous
 62
     7
100
AcDbLine
 10
74.98614573058528
 20
781.3749999957537
 30
0.0
 11
75.9175938102014
 21
781.3749999957537
 31
0.0
  0
LINE
  5
191
330
4E
100
AcDbEntity
  8
0
  6
Continuous
 62
     7
100
AcDbLine
 10
75.9175938102014
 20
781.3749999957537
 30
0.0
 11
75.9175938102014
 21
793.37499999999
 31
0.0
  0
LINE
  5
192
330
4E
100
AcDbEntity
  8
0
  6
Continuous
 62
     7
100
AcDbLine
 10
74.98614573058528
 20
781.3749999957537
 30
0.0
 11
74.98614573058528
 21
793.37499999999
 31
0.0
  0
LINE
  5
193
330
4E
100
AcDbEntity
  8
0
  6
Continuous
 62
     7
100
AcDbLine
 10
68.79785453819093
 20
781.3749999957537
 30
0.0
 11
68.79785453819093
 21
793.37499999999
 31
0.0
  0
LINE
  5
194
330
4E
100
AcDbEntity
  8
0
  6
Continuous
 62
     7
100
AcDbLine
 10
52.95775052468864
 20
793.37499999999
 30
0.0
 11
66.90785446372135
 21
793.37499999999
 31
0.0
  0
LINE
  5
195
330
4E
100
AcDbEntity
  8
0
  6
Continuous
 62
     7
100
AcDbLine
 10
52.95775052468865
 20
781.3749999957537
 30
0.0
 11
66.90785446372135
 21
781.3749999957537
 31
0.0
  0
LINE
  5
196
330
4E
100
AcDbEntity
  8
0
  6
Continuous
 62
     7
100
AcDbLine
 10
36.16392696372136
 20
781.3749999957537
 30
0.0
 11
36.16392696372136
 21
793.37499999999
 31
0.0
  0
LINE
  5
197
330
4E
100
AcDbEntity
  8
0
  6
Continuous
 62
     7
100
AcDbLine
 10
34.36710321706416
 20
793.37499999999
 30
0.0
 11
34.36710321706416
 21
781.3749999957537
 31
0.0
  0
LINE
  5
198
330
4E
100
AcDbEntity
  8
0
  6
Continuous
 62
     7
100
AcDbLine
 10
97.34785453819075
 20
781.3749999957537
 30
0.0
 11
98.27956345974971
 21
781.3749999957537
 31
0.0
  0
LINE
  5
199
330
4E
100
AcDbEntity
  8
0
  6
Continuous
 62
     7
100
AcDbLine
 10
93.90785446372135
 20
781.3749999957537
 30
0.0
 11
97.34785453819075
 21
781.3749999957537
 31
0.0
  0
LINE
  5
19A
330
4E
100
AcDbEntity
  8
0
  6
Continuous
 62
     7
100
AcDbLine
 10
93.90785446372135
 20
782.0250009554331
 30
0.0
 11
93.90785446372135
 21
782.7250004053205
 31
0.0
  0
LINE
  5
19B
330
4E
100
AcDbEntity
  8
0
  6
Continuous
 62
     7
100
AcDbLine
 10
93.90785446372135
 20
782.7250004053205
 30
0.0
 11
93.90785446372135
 21
791.9749998246144
 31
0.0
  0
LINE
  5
19C
330
4E
100
AcDbEntity
  8
0
  6
Continuous
 62
     7
100
AcDbLine
 10
93.90785446372135
 20
781.3749999957537
 30
0.0
 11
93.90785446372135
 21
782.0250009554331
 31
0.0
  0
LINE
  5
19D
330
4E
100
AcDbEntity
  8
0
  6
Continuous
 62
     7
100
AcDbLine
 10
86.90761203938233
 20
791.9749998246144
 30
0.0
 11
86.90761203938233
 21
782.7250003053206
 31
0.0
  0
LINE
  5
19E
330
4E
100
AcDbEntity
  8
0
  6
Continuous
 62
     7
100
AcDbLine
 10
97.34785453819075
 20
781.3749999957537
 30
0.0
 11
97.34785453819075
 21
793.37499999999
 31
0.0
  0
LINE
  5
19F
330
4E
100
AcDbEntity
  8
0
  6
Continuous
 62
     7
100
AcDbLine
 10
98.27956345974971
 20
781.3749999957537
 30
0.0
 11
98.27956345974971
 21
793.37499999999
 31
0.0
  0
LINE
  5
1A0
330
4E
100
AcDbEntity
  8
0
  6
Continuous
 62
     2
100
AcDbLine
 10
121.8902439586076
 20
791.839047345459
 30
0.0
 11
126.76050268184
 21
791.8390473454413
 31
0.0
  0
LINE
  5
1A1
330
4E
100
AcDbEntity
  8
0
  6
Continuous
 62
     7
100
AcDbLine
 10
122.959367072131
 20
792.3749999466735
 30
0.0
 11
125.493457478596
 21
792.3749999466736
 31
0.0
  0
LINE
  5
1A2
330
4E
100
AcDbEntity
  8
0
  6
Continuous
 62
     7
100
AcDbLine
 10
97.34785453819075
 20
793.37499999999
 30
0.0
 11
98.27956345974971
 21
793.37499999999
 31
0.0
  0
LINE
  5
1A3
330
4E
100
AcDbEntity
  8
0
  6
Continuous
 62
     7
100
AcDbLine
 10
103.5361455464712
 20
793.37499999999
 30
0.0
 11
104.4678543581909
 21
793.37499999999
 31
0.0
  0
LINE
  5
1A4
330
4E
100
AcDbEntity
  8
0
  6
Continuous
 62
     7
100
AcDbLine
 10
93.90785446372135
 20
793.37499999999
 30
0.0
 11
97.34785453819075
 21
793.37499999999
 31
0.0
  0
LINE
  5
1A5
330
4E
100
AcDbEntity
  8
0
  6
Continuous
 62
     7
100
AcDbLine
 10
98.27956345974971
 20
793.37499999999
 30
0.0
 11
103.5361455464712
 21
793.37499999999
 31
0.0
  0
LINE
  5
1A6
330
4E
100
AcDbEntity
  8
0
  6
Continuous
 62
     7
100
AcDbLine
 10
111.600906333071
 20
791.3749999653205
 30
0.0
 11
111.600906333071
 21
793.37499999999
 31
0.0
  0
LINE
  5
1A7
330
4E
100
AcDbEntity
  8
0
  6
Continuous
 62
     7
100
AcDbLine
 10
121.2399765072239
 20
790.7749999466736
 30
0.0
 11
120.8691645698668
 21
790.7749999466735
 31
0.0
  0
LINE
  5
1A8
330
4E
100
AcDbEntity
  8
0
  6
Continuous
 62
     7
100
AcDbLine
 10
111.600906333071
 20
791.3749999653205
 30
0.0
 11
115.7980988746906
 21
791.3749999653205
 31
0.0
  0
LINE
  5
1A9
330
4E
100
AcDbEntity
  8
0
  6
Continuous
 62
     7
100
AcDbLine
 10
109.8506340320439
 20
791.3749999653205
 30
0.0
 11
111.600906333071
 21
791.3749999653205
 31
0.0
  0
LINE
  5
1AA
330
4E
100
AcDbEntity
  8
0
  6
Continuous
 62
     7
100
AcDbLine
 10
109.7826143664023
 20
791.3749999653205
 30
0.0
 11
109.8506340320439
 21
791.3749999653205
 31
0.0
  0
LINE
  5
1AB
330
4E
100
AcDbEntity
  8
0
  6
Continuous
 62
     7
100
AcDbLine
 10
93.90785446372135
 20
791.9749998246144
 30
0.0
 11
93.90785446372135
 21
793.37499999999
 31
0.0
  0
LINE
  5
1AC
330
4E
100
AcDbEntity
  8
0
  6
Continuous
 62
     7
100
AcDbLine
 10
36.16392696372136
 20
793.37499999999
 30
0.0
 11
37.04500146372238
 21
793.37499999999
 31
0.0
  0
LINE
  5
1AD
330
4E
100
AcDbEntity
  8
0
  6
Continuous
 62
     7
100
AcDbLine
 10
36.16392696372136
 20
793.37499999999
 30
0.0
 11
34.36710321706416
 21
793.37499999999
 31
0.0
  0
LINE
  5
1AE
330
4E
100
AcDbEntity
  8
0
  6
Continuous
 62
     7
100
AcDbLine
 10
51.65775097042285
 20
793.37499999999
 30
0.0
 11
52.95775052468864
 21
793.37499999999
 31
0.0
  0
LINE
  5
1AF
330
4E
100
AcDbEntity
  8
0
  6
Continuous
 62
     7
100
AcDbLine
 10
81.70761238006638
 20
793.37499999999
 30
0.0
 11
93.90785446372135
 21
793.37499999999
 31
0.0
  0
LINE
  5
1B0
330
4E
100
AcDbEntity
  8
0
  6
Continuous
 62
     7
100
AcDbLine
 10
75.9175938102014
 20
793.37499999999
 30
0.0
 11
81.70761238006638
 21
793.37499999999
 31
0.0
  0
LINE
  5
1B1
330
4E
100
AcDbEntity
  8
0
  6
Continuous
 62
     7
100
AcDbLine
 10
69.7295636714113
 20
793.37499999999
 30
0.0
 11
74.98614573058528
 21
793.37499999999
 31
0.0
  0
LINE
  5
1B2
330
4E
100
AcDbEntity
  8
0
  6
Continuous
 62
     7
100
AcDbLine
 10
66.90785446372135
 20
793.37499999999
 30
0.0
 11
68.79785453819093
 21
793.37499999999
 31
0.0
  0
LINE
  5
1B3
330
4E
100
AcDbEntity
  8
0
  6
Continuous
 62
     7
100
AcDbLine
 10
104.4678543581909
 20
793.37499999999
 30
0.0
 11
111.600906333071
 21
793.37499999999
 31
0.0
  0
LINE
  5
1B4
330
4E
100
AcDbEntity
  8
0
  6
Continuous
 62
     7
100
AcDbLine
 10
93.90785446372135
 20
782.7250004053205
 30
0.0
 11
88.70761177170051
 21
782.7250004053205
 31
0.0
  0
LINE
  5
1B5
330
4E
100
AcDbEntity
  8
0
  6
Continuous
 62
     7
100
AcDbLine
 10
53.95775050372215
 20
782.2249999699998
 30
0.0
 11
65.90785427672216
 21
782.2249999699998
 31
0.0
  0
LINE
  5
1B6
330
4E
100
AcDbEntity
  8
0
  6
Continuous
 62
     7
100
AcDbLine
 10
51.27703263706412
 20
785.5749999653206
 30
0.0
 11
38.04475937706411
 21
785.5749999653206
 31
0.0
  0
SPLINE
  5
1B7
330
4E
100
AcDbEntity
  8
0
  6
Continuous
 62
     7
100
AcDbSpline
210
0.0
220
0.0
230
1.0
 70
     8
 71
     3
 72
    11
 73
     7
 74
     5
 42
0.000000001
 43
0.0000000001
 44
0.00000001
 40
0.0
 40
0.0
 40
0.0
 40
0.0
 40
1.124860436677859
 40
2.231397975360697
 40
3.304179305200136
 40
4.333441811140233
 40
4.333441811140233
 40
4.333441811140233
 40
4.333441811140233
 10
120.1306520586363
 20
786.8390473454235
 30
0.0
 10
120.1504072250585
 20
786.4633483774727
 30
0.0
 10
120.1895957799296
 20
785.7180702191315
 30
0.0
 10
120.5087798273375
 20
784.6556390151568
 30
0.0
 10
120.9880825287692
 20
783.6874428003678
 30
0.0
 10
121.4608379190978
 20
783.1661854143788
 30
0.0
 10
121.692321868887
 20
782.9109525479058
 30
0.0
 11
120.1306520586363
 21
786.8390473454235
 31
0.0
 11
120.2347358137865
 21
785.7190127142252
 31
0.0
 11
120.5416952967199
 21
784.6559034984839
 31
0.0
 11
121.0359309674729
 21
783.7037528338316
 31
0.0
 11
121.692321868887
 21
782.9109525479058
 31
0.0
  0
SPLINE
  5
1B8
330
4E
100
AcDbEntity
  8
0
  6
Continuous
 62
     7
100
AcDbSpline
210
0.0
220
0.0
230
1.0
 70
     8
 71
     3
 72
    11
 73
     7
 74
     5
 42
0.000000001
 43
0.0000000001
 44
0.00000001
 40
0.0
 40
0.0
 40
0.0
 40
0.0
 40
1.029262505940063
 40
2.10204383577971
 40
3.208581374462221
 40
4.333441811140307
 40
4.333441811140307
 40
4.333441811140307
 40
4.333441811140307
 10
121.6923218688871
 20
791.8390473454413
 30
0.0
 10
121.4608379190978
 20
791.5838144789685
 30
0.0
 10
120.9880825287691
 20
791.0625570929791
 30
0.0
 10
120.5087798273376
 20
790.0943608781903
 30
0.0
 10
120.1895957799296
 20
789.0319296742157
 30
0.0
 10
120.1504072250585
 20
788.2866515158745
 30
0.0
 10
120.1306520586363
 20
787.9109525479236
 30
0.0
 11
121.6923218688871
 21
791.8390473454413
 31
0.0
 11
121.035930967473
 21
791.0462470595156
 31
0.0
 11
120.5416952967199
 21
790.0940963948631
 31
0.0
 11
120.2347358137865
 21
789.0309871791221
 31
0.0
 11
120.1306520586363
 21
787.9109525479236
 31
0.0
  0
SPLINE
  5
1B9
330
4E
100
AcDbEntity
  8
0
  6
Continuous
 62
     7
100
AcDbSpline
210
0.0
220
0.0
230
1.0
 70
     8
 71
     3
 72
    11
 73
     7
 74
     5
 42
0.000000001
 43
0.0000000001
 44
0.00000001
 40
0.0
 40
0.0
 40
0.0
 40
0.0
 40
1.124860436677862
 40
2.231397975360603
 40
3.304179305200224
 40
4.333441811140277
 40
4.333441811140277
 40
4.333441811140277
 40
4.333441811140277
 10
128.3221724920908
 20
787.9109525479236
 30
0.0
 10
128.3024173256686
 20
788.2866515158744
 30
0.0
 10
128.2632287707975
 20
789.0319296742155
 30
0.0
 10
127.9440447233894
 20
790.0943608781906
 30
0.0
 10
127.464742021958
 20
791.062557092979
 30
0.0
 10
126.9919866316293
 20
791.5838144789684
 30
0.0
 10
126.76050268184
 20
791.8390473454413
 30
0.0
 11
128.3221724920908
 21
787.9109525479236
 31
0.0
 11
128.2180887369406
 21
789.0309871791219
 31
0.0
 11
127.9111292540071
 21
790.0940963948631
 31
0.0
 11
127.4168935832541
 21
791.0462470595156
 31
0.0
 11
126.76050268184
 21
791.8390473454413
 31
0.0
  0
SPLINE
  5
1BA
330
4E
100
AcDbEntity
  8
0
  6
Continuous
 62
     7
100
AcDbSpline
210
0.0
220
0.0
230
1.0
 70
     8
 71
     3
 72
    13
 73
     9
 74
     7
 42
0.000000001
 43
0.0000000001
 44
0.00000001
 40
0.0
 40
0.0
 40
0.0
 40
0.0
 40
0.4165115322289322
 40
0.824009247407341
 40
1.215403476404672
 40
1.587336948577853
 40
1.941553777941269
 40
2.285126325593263
 40
2.285126325593263
 40
2.285126325593263
 40
2.285126325593263
 10
119.3115000100427
 20
787.3749999653205
 30
0.0
 10
119.302952416151
 20
787.5141215509785
 30
0.0
 10
119.2860421943896
 20
787.7893539601007
 30
0.0
 10
119.1513175491003
 20
788.1765308847481
 30
0.0
 10
118.944784053323
 20
788.5119875495674
 30
0.0
 10
118.6711925253473
 20
788.7698501877526
 30
0.0
 10
118.3493554698034
 20
788.9420098093346
 30
0.0
 10
118.1158355911555
 20
788.9641156542259
 30
0.0
 10
118.00085674069
 20
788.9749999653205
 30
0.0
 11
119.3115000100427
 21
787.3749999653205
 31
0.0
 11
119.266840586091
 21
787.7891103270804
 31
0.0
 11
119.1359071072486
 21
788.1749999653206
 31
0.0
 11
118.927621237085
 21
788.506370513589
 31
0.0
 11
118.6561783753663
 21
788.7606406113757
 31
0.0
 11
118.340076089696
 21
788.9204808753489
 31
0.0
 11
118.00085674069
 21
788.9749999653205
 31
0.0
  0
SPLINE
  5
1BB
330
4E
100
AcDbEntity
  8
0
  6
Continuous
 62
     7
100
AcDbSpline
210
0.0
220
0.0
230
1.0
 70
     8
 71
     3
 72
    11
 73
     7
 74
     5
 42
0.000000001
 43
0.0000000001
 44
0.00000001
 40
0.0
 40
0.0
 40
0.0
 40
0.0
 40
0.1329795821569576
 40
0.2753090134646379
 40
0.428819769282849
 40
0.596807297135352
 40
0.596807297135352
 40
0.596807297135352
 40
0.596807297135352
 10
116.8504699938876
 20
788.1416581804389
 30
0.0
 10
116.8796612427413
 20
788.1082854687944
 30
0.0
 10
116.9400962004866
 20
788.0391936065848
 30
0.0
 10
117.0414650265931
 20
787.9382862609507
 30
0.0
 10
117.1551619165335
 20
787.8334578196384
 30
0.0
 10
117.2372606665738
 20
787.7645557062041
 30
0.0
 10
117.2801584622142
 20
787.728553355914
 30
0.0
 11
116.8504699938876
 21
788.1416581804389
 31
0.0
 11
116.9391275558734
 21
788.0425450830126
 31
0.0
 11
117.0394201390672
 21
787.9415546629477
 31
0.0
 11
117.1523635122359
 21
787.8375866546617
 31
0.0
 11
117.2801584622142
 21
787.728553355914
 31
0.0
  0
SPLINE
  5
1BC
330
4E
100
AcDbEntity
  8
0
  6
Continuous
 62
     7
100
AcDbSpline
210
0.0
220
0.0
230
1.0
 70
     8
 71
     3
 72
    19
 73
    15
 74
    13
 42
0.000000001
 43
0.0000000001
 44
0.00000001
 40
0.0
 40
0.0
 40
0.0
 40
0.0
 40
0.0551929480023764
 40
0.1016994705591112
 40
0.148742977888079
 40
0.203826474510434
 40
0.2550569546708831
 40
0.3056368880455502
 40
0.3520260860219284
 40
0.4076741863874485
 40
0.5085289007508014
 40
0.6111705604502695
 40
0.7108333071435294
 40
0.8147311273086846
 40
0.8147311273086846
 40
0.8147311273086846
 40
0.8147311273086846
 10
117.2801584622142
 20
787.0214465747273
 30
0.0
 10
117.294018963099
 20
787.0335705077804
 30
0.0
 10
117.3195585500917
 20
787.0559102842881
 30
0.0
 10
117.3525994156323
 20
787.0930213465277
 30
0.0
 10
117.3822080431513
 20
787.1328182514151
 30
0.0
 10
117.4081442165488
 20
787.1770212276308
 30
0.0
 10
117.4292478985596
 20
787.2249920303392
 30
0.0
 10
117.4438284403043
 20
787.2723099306662
 30
0.0
 10
117.4532677911224
 20
787.322401754254
 30
0.0
 10
117.4577484839946
 20
787.3900506056624
 30
0.0
 10
117.4473568091217
 20
787.4767471272324
 30
0.0
 10
117.4114664547736
 20
787.5720332879705
 30
0.0
 10
117.3557782586496
 20
787.6588597376032
 30
0.0
 10
117.3057122717371
 20
787.705002155857
 30
0.0
 10
117.2801584622142
 20
787.728553355914
 30
0.0
 11
117.2801584622142
 21
787.0214465747273
 31
0.0
 11
117.3208714876531
 21
787.0587119924369
 31
0.0
 11
117.3519500430931
 21
787.0933093934906
 31
0.0
 11
117.3799545378935
 21
787.1311093927823
 31
0.0
 11
117.4078080033805
 21
787.1786317682037
 31
0.0
 11
117.4284041556422
 21
787.2255397706133
 31
0.0
 11
117.4432768627112
 21
787.2738836670103
 31
0.0
 11
117.4518564841828
 21
787.3194725674684
 31
0.0
 11
117.4555197135093
 21
787.3749999653205
 31
0.0
 11
117.4435152895587
 21
787.4751377080406
 31
0.0
 11
117.4078080033805
 21
787.5713681624375
 31
0.0
 11
117.3534215370914
 21
787.65488328524
 31
0.0
 11
117.2801584622142
 21
787.728553355914
 31
0.0
  0
SPLINE
  5
1BD
330
4E
100
AcDbEntity
  8
0
  6
Continuous
 62
     7
100
AcDbSpline
210
0.0
220
0.0
230
1.0
 70
     8
 71
     3
 72
    11
 73
     7
 74
     5
 42
0.000000001
 43
0.0000000001
 44
0.00000001
 40
0.0
 40
0.0
 40
0.0
 40
0.0
 40
0.1679875278714807
 40
0.3214982836786724
 40
0.4638277149755711
 40
0.5968072971355693
 40
0.5968072971355693
 40
0.5968072971355693
 40
0.5968072971355693
 10
117.2801584622142
 20
787.0214465747273
 30
0.0
 10
117.2372606665691
 20
786.9854442244329
 30
0.0
 10
117.1551619165269
 20
786.9165421109966
 30
0.0
 10
117.0414650265873
 20
786.8117136696851
 30
0.0
 10
116.9400962004856
 20
786.7108063240547
 30
0.0
 10
116.8796612427419
 20
786.6417144618475
 30
0.0
 10
116.8504699938875
 20
786.6083417502022
 30
0.0
 11
117.2801584622142
 21
787.0214465747273
 31
0.0
 11
117.1523635122218
 21
786.9124132759669
 31
0.0
 11
117.0394201390615
 21
786.808445267688
 31
0.0
 11
116.9391275558754
 21
786.7074548476306
 31
0.0
 11
116.8504699938875
 21
786.6083417502022
 31
0.0
  0
SPLINE
  5
1BE
330
4E
100
AcDbEntity
  8
0
  6
Continuous
 62
     7
100
AcDbSpline
210
0.0
220
0.0
230
1.0
 70
     8
 71
     3
 72
    15
 73
    11
 74
     9
 42
0.000000001
 43
0.0000000001
 44
0.00000001
 40
0.0
 40
0.0
 40
0.0
 40
0.0
 40
0.3408658358611124
 40
0.6970799612074084
 40
1.065384704110893
 40
1.440301971066424
 40
1.815219238021956
 40
2.183523980925331
 40
2.539738106271527
 40
2.880603942132725
 40
2.880603942132725
 40
2.880603942132725
 40
2.880603942132725
 10
117.2295485457545
 20
788.668600284302
 30
0.0
 10
117.309109285433
 20
788.5867810230923
 30
0.0
 10
117.4718131640311
 20
788.4194583854212
 30
0.0
 10
117.6386108095928
 20
788.1009129046126
 30
0.0
 10
117.7452979326397
 20
787.7485219863477
 30
0.0
 10
117.7807813732837
 20
787.3749999653206
 30
0.0
 10
117.7452979326397
 20
787.0014779442932
 30
0.0
 10
117.6386108095928
 20
786.649087026029
 30
0.0
 10
117.471813164031
 20
786.3305415452198
 30
0.0
 10
117.3091092854329
 20
786.1632189075486
 30
0.0
 10
117.2295485457545
 20
786.0813996463392
 30
0.0
 11
117.2295485457545
 21
788.668600284302
 31
0.0
 11
117.4554219098953
 21
788.4133146747606
 31
0.0
 11
117.6262933630587
 21
788.1007583578987
 31
0.0
 11
117.732737445473
 21
787.7481707200754
 31
0.0
 11
117.7688836216503
 21
787.3749999653205
 31
0.0
 11
117.732737445473
 21
787.0018292105656
 31
0.0
 11
117.6262933630587
 21
786.6492415727424
 31
0.0
 11
117.4554219098953
 21
786.3366852558806
 31
0.0
 11
117.2295485457545
 21
786.0813996463392
 31
0.0
  0
SPLINE
  5
1BF
330
4E
100
AcDbEntity
  8
0
  6
Continuous
 62
     7
100
AcDbSpline
210
0.0
220
0.0
230
1.0
 70
     8
 71
     3
 72
    13
 73
     9
 74
     7
 42
0.000000001
 43
0.0000000001
 44
0.00000001
 40
0.0
 40
0.0
 40
0.0
 40
0.0
 40
0.3435725476520125
 40
0.6977893770153774
 40
1.069722849188481
 40
1.461117078185907
 40
1.868614793364424
 40
2.28512632559313
 40
2.28512632559313
 40
2.28512632559313
 40
2.28512632559313
 10
118.00085674069
 20
785.7749999653206
 30
0.0
 10
118.1158355911555
 20
785.7858842764151
 30
0.0
 10
118.3493554698035
 20
785.8079901213067
 30
0.0
 10
118.6711925253473
 20
785.9801497428884
 30
0.0
 10
118.944784053323
 20
786.2380123810735
 30
0.0
 10
119.1513175491002
 20
786.5734690458933
 30
0.0
 10
119.2860421943896
 20
786.9606459705401
 30
0.0
 10
119.302952416151
 20
787.2358783796626
 30
0.0
 10
119.3115000100427
 20
787.3749999653205
 30
0.0
 11
118.00085674069
 21
785.7749999653206
 31
0.0
 11
118.340076089696
 21
785.8295190552924
 31
0.0
 11
118.6561783753663
 21
785.9893593192654
 31
0.0
 11
118.927621237085
 21
786.243629417052
 31
0.0
 11
119.1359071072486
 21
786.5749999653206
 31
0.0
 11
119.266840586091
 21
786.9608896035609
 31
0.0
 11
119.3115000100427
 21
787.3749999653205
 31
0.0
  0
SPLINE
  5
1C0
330
4E
100
AcDbEntity
  8
0
  6
Continuous
 62
     7
100
AcDbSpline
210
0.0
220
0.0
230
1.0
 70
     8
 71
     3
 72
    19
 73
    15
 74
    13
 42
0.000000001
 43
0.0000000001
 44
0.00000001
 40
0.0
 40
0.0
 40
0.0
 40
0.0
 40
0.3435725457727174
 40
0.6977893751394444
 40
1.069722848099049
 40
1.461117077964418
 40
1.868614793867827
 40
2.285126325317767
 40
2.701637856767594
 40
3.109135572671003
 40
3.500529802536476
 40
3.872463275495992
 40
4.226680104862719
 40
4.570252650635437
 40
4.570252650635437
 40
4.570252650635437
 40
4.570252650635437
 10
118.00085674069
 20
788.9749999653205
 30
0.0
 10
117.8858826355616
 20
788.9641156542856
 30
0.0
 10
117.6523723938882
 20
788.942009810433
 30
0.0
 10
117.3304601011893
 20
788.7698501899138
 30
0.0
 10
117.05717551275
 20
788.5119875514462
 30
0.0
 10
116.8494082710995
 20
788.176530885698
 30
0.0
 10
116.7195555437447
 20
787.7893539613638
 30
0.0
 10
116.675381964108
 20
787.3749999653203
 30
0.0
 10
116.7195555437447
 20
786.9606459692775
 30
0.0
 10
116.8494082710995
 20
786.5734690449431
 30
0.0
 10
117.0571755127499
 20
786.2380123791951
 30
0.0
 10
117.3304601011893
 20
785.9801497407273
 30
0.0
 10
117.6523723938882
 20
785.8079901202084
 30
0.0
 10
117.8858826355617
 20
785.7858842763558
 30
0.0
 10
118.00085674069
 20
785.7749999653206
 30
0.0
 11
118.00085674069
 21
788.9749999653205
 31
0.0
 11
117.6616373916839
 21
788.9204808753489
 31
0.0
 11
117.3455351060136
 21
788.7606406113757
 31
0.0
 11
117.074092244295
 21
788.506370513589
 31
0.0
 11
116.8658063741315
 21
788.1749999653206
 31
0.0
 11
116.734872895289
 21
787.7891103270804
 31
0.0
 11
116.6902134713373
 21
787.3749999653205
 31
0.0
 11
116.734872895289
 21
786.9608896035608
 31
0.0
 11
116.8658063741315
 21
786.5749999653206
 31
0.0
 11
117.074092244295
 21
786.243629417052
 31
0.0
 11
117.3455351060136
 21
785.9893593192654
 31
0.0
 11
117.6616373916839
 21
785.8295190552923
 31
0.0
 11
118.00085674069
 21
785.7749999653206
 31
0.0
  0
SPLINE
  5
1C1
330
4E
100
AcDbEntity
  8
0
  6
Continuous
 62
     7
100
AcDbSpline
210
0.0
220
0.0
230
1.0
 70
     8
 71
     3
 72
    11
 73
     7
 74
     5
 42
0.000000001
 43
0.0000000001
 44
0.00000001
 40
0.0
 40
0.0
 40
0.0
 40
0.0
 40
1.304591512266586
 40
2.334649692655497
 40
3.117330302364952
 40
3.735299840197464
 40
3.735299840197464
 40
3.735299840197464
 40
3.735299840197464
 10
120.5848614462398
 20
784.5505070579378
 30
0.0
 10
120.9875234398028
 20
784.7193921027011
 30
0.0
 10
121.7081127504303
 20
785.021622657908
 30
0.0
 10
122.5766607879241
 20
785.5817408159744
 30
0.0
 10
123.1905301724488
 20
786.1658315870791
 30
0.0
 10
123.2839534022853
 20
786.6329526375362
 30
0.0
 10
123.3251719040886
 20
786.8390473454235
 30
0.0
 11
120.5848614462398
 21
784.5505070579378
 31
0.0
 11
121.770955061926
 21
785.0937757967955
 31
0.0
 11
122.6303248359557
 21
785.6616696670615
 31
0.0
 11
123.1508451584654
 21
786.2461759086837
 31
0.0
 11
123.3251719040886
 21
786.8390473454235
 31
0.0
  0
SPLINE
  5
1C2
330
4E
100
AcDbEntity
  8
0
  6
Continuous
 62
     7
100
AcDbSpline
210
0.0
220
0.0
230
1.0
 70
     8
 71
     3
 72
    11
 73
     7
 74
     5
 42
0.000000001
 43
0.0000000001
 44
0.00000001
 40
0.0
 40
0.0
 40
0.0
 40
0.0
 40
0.3656599093965339
 40
0.7202492101075733
 40
1.066476356140211
 40
1.408195779443291
 40
1.408195779443291
 40
1.408195779443291
 40
1.408195779443291
 10
121.692321868887
 20
782.9109525479058
 30
0.0
 10
121.7844333084796
 20
782.8305549507272
 30
0.0
 10
121.9658674587137
 20
782.6721938612957
 30
0.0
 10
122.2823165616803
 20
782.5047725242217
 30
0.0
 10
122.6154521866499
 20
782.3952977616875
 30
0.0
 10
122.845230645612
 20
782.3817362598525
 30
0.0
 10
122.959367072131
 20
782.3749999466736
 30
0.0
 11
121.692321868887
 21
782.9109525479058
 31
0.0
 11
121.9769764506797
 21
782.6814336186308
 31
0.0
 11
122.2888918744799
 21
782.5127850435667
 31
0.0
 11
122.6194126924074
 21
782.4096869011511
 31
0.0
 11
122.959367072131
 21
782.3749999466736
 31
0.0
  0
SPLINE
  5
1C3
330
4E
100
AcDbEntity
  8
0
  6
Continuous
 62
     7
100
AcDbSpline
210
0.0
220
0.0
230
1.0
 70
     8
 71
     3
 72
    11
 73
     7
 74
     5
 42
0.000000001
 43
0.0000000001
 44
0.00000001
 40
0.0
 40
0.0
 40
0.0
 40
0.0
 40
0.3417194233031627
 40
0.6879465693357936
 40
1.042535870046951
 40
1.408195779441602
 40
1.408195779441602
 40
1.408195779441602
 40
1.408195779441602
 10
125.493457478596
 20
782.3749999466736
 30
0.0
 10
125.607593905115
 20
782.3817362598522
 30
0.0
 10
125.837372364077
 20
782.3952977616882
 30
0.0
 10
126.1705079890471
 20
782.5047725242215
 30
0.0
 10
126.4869570920117
 20
782.6721938612958
 30
0.0
 10
126.6683912422546
 20
782.830554950716
 30
0.0
 10
126.7605026818515
 20
782.9109525478881
 30
0.0
 11
125.493457478596
 21
782.3749999466736
 31
0.0
 11
125.8334118583197
 21
782.4096869011512
 31
0.0
 11
126.1639326762472
 21
782.5127850435667
 31
0.0
 11
126.4758481000487
 21
782.6814336186285
 31
0.0
 11
126.7605026818515
 21
782.9109525478881
 31
0.0
  0
SPLINE
  5
1C4
330
4E
100
AcDbEntity
  8
0
  6
Continuous
 62
     7
100
AcDbSpline
210
0.0
220
0.0
230
1.0
 70
     8
 71
     3
 72
    11
 73
     7
 74
     5
 42
0.000000001
 43
0.0000000001
 44
0.00000001
 40
0.0
 40
0.0
 40
0.0
 40
0.0
 40
1.029262505945547
 40
2.102043835786417
 40
3.208581374469158
 40
4.333441811147133
 40
4.333441811147133
 40
4.333441811147133
 40
4.333441811147133
 10
126.7605026818515
 20
782.9109525478881
 30
0.0
 10
126.9919866316366
 20
783.1661854143666
 30
0.0
 10
127.4647420219556
 20
783.6874428003673
 30
0.0
 10
127.9440447233896
 20
784.6556390151557
 30
0.0
 10
128.2632287707974
 20
785.7180702191315
 30
0.0
 10
128.3024173256685
 20
786.4633483774726
 30
0.0
 10
128.3221724920908
 20
786.8390473454235
 30
0.0
 11
126.7605026818515
 21
782.9109525478881
 31
0.0
 11
127.4168935832556
 21
783.7037528338292
 31
0.0
 11
127.9111292540071
 21
784.6559034984839
 31
0.0
 11
128.2180887369406
 21
785.7190127142251
 31
0.0
 11
128.3221724920908
 21
786.8390473454235
 31
0.0
  0
SPLINE
  5
1C5
330
4E
100
AcDbEntity
  8
0
  6
Continuous
 62
     7
100
AcDbSpline
210
0.0
220
0.0
230
1.0
 70
     8
 71
     3
 72
     9
 73
     5
 74
     3
 42
0.000000001
 43
0.0000000001
 44
0.00000001
 40
0.0
 40
0.0
 40
0.0
 40
0.0
 40
0.105543507337881
 40
0.1980353820125305
 40
0.1980353820125305
 40
0.1980353820125305
 40
0.1980353820125305
 10
121.8902439586076
 20
791.839047345459
 30
0.0
 10
121.9009253967677
 20
791.872753107273
 30
0.0
 10
121.9209673745417
 20
791.935996541462
 30
0.0
 10
121.9241706696512
 20
792.002213823878
 30
0.0
 10
121.9256667504776
 20
792.0331404227331
 30
0.0
 11
121.8902439586076
 21
791.839047345459
 31
0.0
 11
121.9175054251967
 21
791.9410093215229
 31
0.0
 11
121.9256667504776
 21
792.0331404227331
 31
0.0
  0
SPLINE
  5
1C6
330
4E
100
AcDbEntity
  8
0
  6
Continuous
 62
     7
100
AcDbSpline
210
0.0
220
0.0
230
1.0
 70
     8
 71
     3
 72
    11
 73
     7
 74
     5
 42
0.000000001
 43
0.0000000001
 44
0.00000001
 40
0.0
 40
0.0
 40
0.0
 40
0.0
 40
0.3656599093965118
 40
0.7202492101074345
 40
1.06647635614018
 40
1.408195779443318
 40
1.408195779443318
 40
1.408195779443318
 40
1.408195779443318
 10
126.76050268184
 20
791.8390473454413
 30
0.0
 10
126.6683912422474
 20
791.9194449426196
 30
0.0
 10
126.4869570920135
 20
792.0778060320516
 30
0.0
 10
126.1705079890466
 20
792.245227369125
 30
0.0
 10
125.8373723640772
 20
792.3547021316596
 30
0.0
 10
125.607593905115
 20
792.3682636334948
 30
0.0
 10
125.493457478596
 20
792.3749999466736
 30
0.0
 11
126.76050268184
 21
791.8390473454413
 31
0.0
 11
126.4758481000473
 21
792.0685662747163
 31
0.0
 11
126.1639326762472
 21
792.2372148497802
 31
0.0
 11
125.8334118583196
 21
792.3403129921961
 31
0.0
 11
125.493457478596
 21
792.3749999466736
 31
0.0
  0
SPLINE
  5
1C7
330
4E
100
AcDbEntity
  8
0
  6
Continuous
 62
     7
100
AcDbSpline
210
0.0
220
0.0
230
1.0
 70
     8
 71
     3
 72
    11
 73
     7
 74
     5
 42
0.000000001
 43
0.0000000001
 44
0.00000001
 40
0.0
 40
0.0
 40
0.0
 40
0.0
 40
0.3417194233031061
 40
0.6879465693357302
 40
1.042535870046665
 40
1.408195779443166
 40
1.408195779443166
 40
1.408195779443166
 40
1.408195779443166
 10
122.959367072131
 20
792.3749999466735
 30
0.0
 10
122.845230645612
 20
792.3682636334948
 30
0.0
 10
122.6154521866499
 20
792.3547021316588
 30
0.0
 10
122.2823165616804
 20
792.2452273691252
 30
0.0
 10
121.9658674587136
 20
792.0778060320515
 30
0.0
 10
121.7844333084797
 20
791.9194449426197
 30
0.0
 10
121.6923218688871
 20
791.8390473454413
 30
0.0
 11
122.959367072131
 21
792.3749999466735
 31
0.0
 11
122.6194126924074
 21
792.3403129921959
 31
0.0
 11
122.2888918744799
 21
792.2372148497802
 31
0.0
 11
121.9769764506798
 21
792.0685662747163
 31
0.0
 11
121.6923218688871
 21
791.8390473454413
 31
0.0
  0
SPLINE
  5
1C8
330
4E
100
AcDbEntity
  8
0
  6
Continuous
 62
     7
100
AcDbSpline
210
0.0
220
0.0
230
1.0
 70
     8
 71
     3
 72
     9
 73
     5
 74
     3
 42
0.000000001
 43
0.0000000001
 44
0.00000001
 40
0.0
 40
0.0
 40
0.0
 40
0.0
 40
0.7003786816846637
 40
1.251366317525757
 40
1.251366317525757
 40
1.251366317525757
 40
1.251366317525757
 10
121.2399765072239
 20
790.7749999466736
 30
0.0
 10
121.3855200404162
 20
790.9590392432023
 30
0.0
 10
121.6455625974647
 20
791.2878621934366
 30
0.0
 10
121.8154437815204
 20
791.6705475852102
 30
0.0
 10
121.8902439586076
 20
791.839047345459
 30
0.0
 11
121.2399765072239
 21
790.7749999466736
 31
0.0
 11
121.6483636668364
 21
791.3439904798089
 31
0.0
 11
121.8902439586076
 21
791.839047345459
 31
0.0
  0
SPLINE
  5
1C9
330
4E
100
AcDbEntity
  8
0
  6
Continuous
 62
     7
100
AcDbSpline
210
0.0
220
0.0
230
1.0
 70
     8
 71
     3
 72
    11
 73
     7
 74
     5
 42
0.000000001
 43
0.0000000001
 44
0.00000001
 40
0.0
 40
0.0
 40
0.0
 40
0.0
 40
0.6179695378324033
 40
1.400650147541858
 40
2.430708327930831
 40
3.735299840197417
 40
3.735299840197417
 40
3.735299840197417
 40
3.735299840197417
 10
123.3251719040886
 20
787.9109525479236
 30
0.0
 10
123.2839534022853
 20
788.1170472558109
 30
0.0
 10
123.1905301724487
 20
788.5841683062675
 30
0.0
 10
122.5766607879241
 20
789.1682590773726
 30
0.0
 10
121.7081127504304
 20
789.7283772354392
 30
0.0
 10
120.9875234398027
 20
790.0306077906458
 30
0.0
 10
120.5848614462398
 20
790.1994928354093
 30
0.0
 11
123.3251719040886
 21
787.9109525479236
 31
0.0
 11
123.1508451584654
 21
788.5038239846633
 31
0.0
 11
122.6303248359557
 21
789.0883302262855
 31
0.0
 11
121.770955061926
 21
789.6562240965516
 31
0.0
 11
120.5848614462398
 21
790.1994928354093
 31
0.0
  0
ENDBLK
  5
50
330
4E
100
AcDbEntity
  8
0
100
AcDbBlockEnd
  0
BLOCK
  5
53
330
51
100
AcDbEntity
  8
0
100
AcDbBlockBegin
  2
Drfsicht1
 70
     0
 10
81.6932336044315
 20
787.3000001907299
 30
0.0
  3
Drfsicht1
  1

  0
INSERT
  5
52
330
51
100
AcDbEntity
  8
0
100
AcDbBlockReference
  2
STN-16-Select__2
 10
34.36710321706416
 20
781.3749999957537
 30
0.0
  0
MTEXT
  5
1CA
330
51
100
AcDbEntity
  8
1
 62
     6
100
AcDbMText
 10
81.69323360443116
 20
776.2250003814647
 30
0.0
 40
5.0
 41
0.0
 71
     2
 72
     1
  1
 
  7
CONVERTER_11
 73
     1
 44
1.32052821128451
  0
DIMENSION
  5
1D5
330
51
100
AcDbEntity
  8
1
100
AcDbDimension
  2
*D17
 10
19.73246364984849
 20
793.37499999999
 30
0.0
 11
16.48246364984849
 21
787.541585644788
 31
0.0
 70
    33
  1
<>
 71
     5
 42
-1.0
 53
90.0
  3
ME10_DIM_10
100
AcDbAlignedDimension
 13
34.36710321706416
 23
781.3749999957537
 33
0.0
 14
34.36710321706416
 24
793.37499999999
 34
0.0
  0
ENDBLK
  5
54
330
51
100
AcDbEntity
  8
0
100
AcDbBlockEnd
  0
BLOCK
  5
56
330
55
100
AcDbEntity
  8
0
100
AcDbBlockBegin
  2
STN-16-Select__3
 70
     0
 10
163.0250605959348
 20
851.8201945725496
 30
0.0
  3
STN-16-Select__3
  1

  0
LINE
  5
1D6
330
55
100
AcDbEntity
  8
0
  6
Continuous
 62
     7
100
AcDbLine
 10
210.4750600959349
 20
851.8201945725496
 30
0.0
 11
210.4750600959339
 21
856.5864469756636
 31
0.0
  0
LINE
  5
1D7
330
55
100
AcDbEntity
  8
0
  6
Continuous
 62
     7
100
AcDbLine
 10
211.9112544668251
 20
858.924999648513
 30
0.0
 11
233.8519070959348
 21
858.924999648513
 31
0.0
  0
LINE
  5
1D8
330
55
100
AcDbEntity
  8
0
  6
Continuous
 62
     7
100
AcDbLine
 10
206.3587109784211
 20
852.6951514360215
 30
0.0
 11
210.4750600959349
 21
851.8201945725496
 31
0.0
  0
LINE
  5
1D9
330
55
100
AcDbEntity
  8
0
  6
Continuous
 62
     7
100
AcDbLine
 10
207.3750605959347
 20
858.8653835857419
 30
0.0
 11
207.3750605959348
 21
857.624997162355
 31
0.0
  0
LINE
  5
1DA
330
55
100
AcDbEntity
  8
0
  6
Continuous
 62
     7
100
AcDbLine
 10
207.9677802420189
 20
857.624995944093
 30
0.0
 11
207.3750605959348
 21
857.624997162355
 31
0.0
  0
LINE
  5
1DB
330
55
100
AcDbEntity
  8
0
  6
Continuous
 62
     7
100
AcDbLine
 10
199.0622075959348
 20
854.2460713551925
 30
0.0
 11
199.0622075959348
 21
862.9749996485125
 31
0.0
  0
LINE
  5
1DC
330
55
100
AcDbEntity
  8
0
  6
Continuous
 62
     7
100
AcDbLine
 10
209.7750580959348
 20
858.6868393375441
 30
0.0
 11
210.3987447880392
 21
858.5197234823765
 31
0.0
  0
LINE
  5
1DD
330
55
100
AcDbEntity
  8
0
  6
Continuous
 62
     7
100
AcDbLine
 10
210.3987447880392
 20
858.5197234823765
 30
0.0
 11
211.9112544668251
 21
858.924999648513
 31
0.0
  0
LINE
  5
1DE
330
55
100
AcDbEntity
  8
0
  6
Continuous
 62
     7
100
AcDbLine
 10
235.2938905959347
 20
863.5022881485129
 30
0.0
 11
238.5312699128197
 21
859.1483122340314
 31
0.0
  0
LINE
  5
1DF
330
55
100
AcDbEntity
  8
0
  6
Continuous
 62
     7
100
AcDbLine
 10
210.4750600959339
 20
856.5864469756636
 30
0.0
 11
207.9677802420189
 21
857.624995944093
 31
0.0
  0
LINE
  5
1E0
330
55
100
AcDbEntity
  8
0
  6
Continuous
 62
     7
100
AcDbLine
 10
202.6171524231047
 20
862.974999648513
 30
0.0
 11
206.3587109784211
 21
852.6951514360215
 31
0.0
  0
LINE
  5
1E1
330
55
100
AcDbEntity
  8
0
  6
Continuous
 62
     7
100
AcDbLine
 10
180.4691557265852
 20
899.4579656485131
 30
0.0
 11
163.0250605959348
 21
887.2434786980193
 31
0.0
  0
LINE
  5
1E2
330
55
100
AcDbEntity
  8
0
  6
Continuous
 62
     7
100
AcDbLine
 10
163.0250605959348
 20
864.2110772930333
 30
0.0
 11
163.0250605959348
 21
861.9060031193014
 31
0.0
  0
LINE
  5
1E3
330
55
100
AcDbEntity
  8
0
  6
Continuous
 62
     7
100
AcDbLine
 10
163.0250605959348
 20
887.2434786980193
 30
0.0
 11
163.025060595935
 21
878.9927180039921
 31
0.0
  0
LINE
  5
1E4
330
55
100
AcDbEntity
  8
0
  6
Continuous
 62
     7
100
AcDbLine
 10
187.9997070959348
 20
897.352965648513
 30
0.0
 11
188.533916513185
 21
897.352965648513
 31
0.0
  0
LINE
  5
1E5
330
55
100
AcDbEntity
  8
0
  6
Continuous
 62
     7
100
AcDbLine
 10
194.3247075959348
 20
896.282966148513
 30
0.0
 11
187.9997070959347
 21
896.282965648513
 31
0.0
  0
LINE
  5
1E6
330
55
100
AcDbEntity
  8
0
  6
Continuous
 62
     7
100
AcDbLine
 10
187.9997070959347
 20
896.282965648513
 30
0.0
 11
187.9997070959348
 21
897.352965648513
 31
0.0
  0
LINE
  5
1E7
330
55
100
AcDbEntity
  8
0
  6
Continuous
 62
     7
100
AcDbLine
 10
241.2846715959349
 20
864.3249441485129
 30
0.0
 11
242.6555145959349
 21
864.3249441485129
 31
0.0
  0
LINE
  5
1E8
330
55
100
AcDbEntity
  8
0
  6
Continuous
 62
     7
100
AcDbLine
 10
252.1235182719555
 20
864.3249996485129
 30
0.0
 11
255.9061350959348
 21
864.3249996485135
 31
0.0
  0
LINE
  5
1E9
330
55
100
AcDbEntity
  8
0
  6
Continuous
 62
     7
100
AcDbLine
 10
255.9061350959348
 20
864.3249996485135
 30
0.0
 11
255.9061350959348
 21
868.5986660826843
 31
0.0
  0
LINE
  5
1EA
330
55
100
AcDbEntity
  8
0
  6
Continuous
 62
     7
100
AcDbLine
 10
255.9061350959348
 20
868.5986660826843
 30
0.0
 11
252.7309246161913
 21
870.8219721485129
 31
0.0
  0
LINE
  5
1EB
330
55
100
AcDbEntity
  8
0
  6
Continuous
 62
     7
100
AcDbLine
 10
252.7309246161913
 20
870.8219721485129
 30
0.0
 11
244.7250605959348
 21
870.821972148513
 31
0.0
  0
LINE
  5
1EC
330
55
100
AcDbEntity
  8
0
  6
Continuous
 62
     7
100
AcDbLine
 10
257.4221646729902
 20
851.874999648513
 30
0.0
 11
257.7007868221114
 21
856.0954798139999
 31
0.0
  0
LINE
  5
1ED
330
55
100
AcDbEntity
  8
0
  6
Continuous
 62
     7
100
AcDbLine
 10
255.7535702216088
 20
856.4725524664326
 30
0.0
 11
255.7526141807567
 21
856.4725524664326
 31
0.0
  0
LINE
  5
1EE
330
55
100
AcDbEntity
  8
0
  6
Continuous
 62
     7
100
AcDbLine
 10
253.7733444094322
 20
856.4725524664327
 30
0.0
 11
253.7733372244674
 21
856.4725524664326
 31
0.0
  0
LINE
  5
1EF
330
55
100
AcDbEntity
  8
0
  6
Continuous
 62
     7
100
AcDbLine
 10
243.5702936808485
 20
851.874999648513
 30
0.0
 11
257.4221646729902
 21
851.874999648513
 31
0.0
  0
LINE
  5
1F0
330
55
100
AcDbEntity
  8
0
  6
Continuous
 62
     7
100
AcDbLine
 10
242.2782020959348
 20
856.1849996485123
 30
0.0
 11
242.2782020959348
 21
857.5771018293386
 31
0.0
  0
LINE
  5
1F1
330
55
100
AcDbEntity
  8
0
  6
Continuous
 62
     7
100
AcDbLine
 10
238.5312699128197
 20
859.1483122340314
 30
0.0
 11
240.5501236631842
 21
858.607361826045
 31
0.0
  0
LINE
  5
1F2
330
55
100
AcDbEntity
  8
0
  6
Continuous
 62
     7
100
AcDbLine
 10
244.8806527615606
 20
856.1849996485138
 30
0.0
 11
242.2782020959348
 21
856.1849996485123
 31
0.0
  0
LINE
  5
1F3
330
55
100
AcDbEntity
  8
0
  6
Continuous
 62
     7
100
AcDbLine
 10
187.6022077014654
 20
899.4579656485123
 30
0.0
 11
180.4691557265852
 21
899.4579656485131
 31
0.0
  0
LINE
  5
1F4
330
55
100
AcDbEntity
  8
0
  6
Continuous
 62
     7
100
AcDbLine
 10
194.3247075959348
 20
897.352965648513
 30
0.0
 11
194.3247075959348
 21
896.282966148513
 31
0.0
  0
LINE
  5
1F5
330
55
100
AcDbEntity
  8
0
  6
Continuous
 62
     7
100
AcDbLine
 10
193.7904985999064
 20
897.352965648513
 30
0.0
 11
194.3247075959348
 21
897.352965648513
 31
0.0
  0
LINE
  5
1F6
330
55
100
AcDbEntity
  8
0
  6
Continuous
 62
     7
100
AcDbLine
 10
198.1622075959348
 20
899.457965648513
 30
0.0
 11
194.7222075214654
 21
899.457965648513
 31
0.0
  0
LINE
  5
1F7
330
55
100
AcDbEntity
  8
0
  6
Continuous
 62
     7
100
AcDbLine
 10
208.3750595959348
 20
858.9046150574376
 30
0.0
 11
208.3750595959348
 21
862.974999648513
 31
0.0
  0
LINE
  5
1F8
330
55
100
AcDbEntity
  8
0
  6
Continuous
 62
     7
100
AcDbLine
 10
199.0622075959348
 20
862.9749996485125
 30
0.0
 11
202.6171524231047
 21
862.974999648513
 31
0.0
  0
LINE
  5
1F9
330
55
100
AcDbEntity
  8
0
  6
Continuous
 62
     7
100
AcDbLine
 10
209.7750580959349
 20
859.6900609755584
 30
0.0
 11
209.7750580959348
 21
858.6868393375441
 31
0.0
  0
LINE
  5
1FA
330
55
100
AcDbEntity
  8
0
  6
Continuous
 62
     7
100
AcDbLine
 10
210.3624496795898
 20
899.4626094381924
 30
0.0
 11
210.3624496795898
 21
888.7786693532433
 31
0.0
  0
LINE
  5
1FB
330
55
100
AcDbEntity
  8
0
  6
Continuous
 62
     7
100
AcDbLine
 10
198.1622075959348
 20
888.7786693532433
 30
0.0
 11
198.1622075959348
 21
899.457965648513
 31
0.0
  0
LINE
  5
1FC
330
55
100
AcDbEntity
  8
0
  6
Continuous
 62
     7
100
AcDbLine
 10
210.3624496795898
 20
888.7786693532433
 30
0.0
 11
198.1622075959348
 21
888.7786693532433
 31
0.0
  0
LINE
  5
1FD
330
55
100
AcDbEntity
  8
0
  6
Continuous
 62
     7
100
AcDbLine
 10
194.7222075214654
 20
899.457965648513
 30
0.0
 11
193.7904985999064
 21
897.352965648513
 31
0.0
  0
LINE
  5
1FE
330
55
100
AcDbEntity
  8
0
  6
Continuous
 62
     7
100
AcDbLine
 10
188.533916513185
 20
897.352965648513
 30
0.0
 11
187.6022077014654
 21
899.4579656485123
 31
0.0
  0
LINE
  5
1FF
330
55
100
AcDbEntity
  8
0
  6
Continuous
 62
     7
100
AcDbLine
 10
207.3750605959347
 20
858.8653835857419
 30
0.0
 11
208.3750595959348
 21
858.9046150574376
 31
0.0
  0
LINE
  5
200
330
55
100
AcDbEntity
  8
0
  6
Continuous
 62
     7
100
AcDbLine
 10
210.1336350959348
 20
859.634449148513
 30
0.0
 11
209.7750580959349
 21
859.6900609755584
 31
0.0
  0
LINE
  5
201
330
55
100
AcDbEntity
  8
0
  6
Continuous
 62
     7
100
AcDbLine
 10
216.1524682494548
 20
899.4573771590012
 30
0.0
 11
210.3624496795898
 21
899.4626094381924
 31
0.0
  0
LINE
  5
202
330
55
100
AcDbEntity
  8
0
  6
Continuous
 62
     7
100
AcDbLine
 10
216.5497075959348
 20
897.352965648513
 30
0.0
 11
217.083916329071
 21
897.352965648513
 31
0.0
  0
LINE
  5
203
330
55
100
AcDbEntity
  8
0
  6
Continuous
 62
     7
100
AcDbLine
 10
217.083916329071
 20
897.352965648513
 30
0.0
 11
216.1524682494548
 21
899.4573771590012
 31
0.0
  0
LINE
  5
204
330
55
100
AcDbEntity
  8
0
  6
Continuous
 62
     7
100
AcDbLine
 10
216.5497075959348
 20
896.282966148513
 30
0.0
 11
216.5497075959348
 21
897.352965648513
 31
0.0
  0
LINE
  5
205
330
55
100
AcDbEntity
  8
0
  6
Continuous
 62
     7
100
AcDbLine
 10
222.8747075959348
 20
896.282966148513
 30
0.0
 11
216.5497075959348
 21
896.282966148513
 31
0.0
  0
LINE
  5
206
330
55
100
AcDbEntity
  8
0
  6
Continuous
 62
     7
100
AcDbLine
 10
222.8747075959348
 20
897.3529661485129
 30
0.0
 11
222.8747075959348
 21
896.282966148513
 31
0.0
  0
LINE
  5
207
330
55
100
AcDbEntity
  8
0
  6
Continuous
 62
     7
100
AcDbLine
 10
222.3404983882449
 20
897.3529651703082
 30
0.0
 11
222.8747075959348
 21
897.3529661485129
 31
0.0
  0
LINE
  5
208
330
55
100
AcDbEntity
  8
0
  6
Continuous
 62
     7
100
AcDbLine
 10
225.1622075959348
 20
899.457965648513
 30
0.0
 11
223.2722075214652
 21
899.457965648513
 31
0.0
  0
LINE
  5
209
330
55
100
AcDbEntity
  8
0
  6
Continuous
 62
     7
100
AcDbLine
 10
208.3750595959348
 20
862.974999648513
 30
0.0
 11
209.7752563068756
 21
862.974999648513
 31
0.0
  0
LINE
  5
20A
330
55
100
AcDbEntity
  8
0
  6
Continuous
 62
     7
100
AcDbLine
 10
223.2722075214652
 20
899.457965648513
 30
0.0
 11
222.3404983882449
 21
897.3529651703082
 31
0.0
  0
LINE
  5
20B
330
55
100
AcDbEntity
  8
0
  6
Continuous
 62
     7
100
AcDbLine
 10
241.2282020959348
 20
857.2651150237574
 30
0.0
 11
241.2282020959348
 21
856.3187988346922
 31
0.0
  0
LINE
  5
20C
330
55
100
AcDbEntity
  8
0
  6
Continuous
 62
     7
100
AcDbLine
 10
243.7750605959348
 20
856.975000148513
 30
0.0
 11
243.7750605959348
 21
859.6376308346561
 31
0.0
  0
LINE
  5
20D
330
55
100
AcDbEntity
  8
0
  6
Continuous
 62
     7
100
AcDbLine
 10
240.5501236631842
 20
858.607361826045
 30
0.0
 11
242.0750605959348
 21
859.0159678639466
 31
0.0
  0
LINE
  5
20E
330
55
100
AcDbEntity
  8
0
  6
Continuous
 62
     7
100
AcDbLine
 10
242.0750605959348
 20
859.0159678639466
 30
0.0
 11
242.0750605959348
 21
857.8417340091962
 31
0.0
  0
LINE
  5
20F
330
55
100
AcDbEntity
  8
0
  6
Continuous
 62
     7
100
AcDbLine
 10
242.0750605959348
 20
857.8417340091962
 30
0.0
 11
243.0212351795281
 21
857.7589539645566
 31
0.0
  0
LINE
  5
210
330
55
100
AcDbEntity
  8
0
  6
Continuous
 62
     7
100
AcDbLine
 10
243.0212351795281
 20
857.7589539645566
 30
0.0
 11
243.2312954657831
 21
856.975000148513
 31
0.0
  0
LINE
  5
211
330
55
100
AcDbEntity
  8
0
  6
Continuous
 62
     7
100
AcDbLine
 10
243.2312954657831
 20
856.975000148513
 30
0.0
 11
243.7750605959348
 21
856.975000148513
 31
0.0
  0
LINE
  5
212
330
55
100
AcDbEntity
  8
0
  6
Continuous
 62
     7
100
AcDbLine
 10
242.2782020959348
 20
857.5771018293386
 30
0.0
 11
241.2282020959348
 21
857.2651150237574
 31
0.0
  0
LINE
  5
213
330
55
100
AcDbEntity
  8
0
  6
Continuous
 62
     7
100
AcDbLine
 10
243.7750605959348
 20
859.6376308346561
 30
0.0
 11
240.8834319266305
 21
863.5266041951436
 31
0.0
  0
LINE
  5
214
330
55
100
AcDbEntity
  8
0
  6
Continuous
 62
     7
100
AcDbLine
 10
244.7250605959348
 20
884.374999648513
 30
0.0
 11
255.0250605959348
 21
884.3750001740239
 31
0.0
  0
LINE
  5
215
330
55
100
AcDbEntity
  8
0
  6
Continuous
 62
     7
100
AcDbLine
 10
255.0250605959348
 20
884.3750001740239
 30
0.0
 11
255.0250605959338
 21
896.4250001485124
 31
0.0
  0
LINE
  5
216
330
55
100
AcDbEntity
  8
0
  6
Continuous
 62
     7
100
AcDbLine
 10
255.0250605959338
 20
896.4250001485124
 30
0.0
 11
240.4123110892333
 21
896.4250001485138
 31
0.0
  0
LINE
  5
217
330
55
100
AcDbEntity
  8
0
  6
Continuous
 62
     7
100
AcDbLine
 10
225.1622075959348
 20
901.125000148513
 30
0.0
 11
225.1622075959348
 21
899.457965648513
 31
0.0
  0
LINE
  5
218
330
55
100
AcDbEntity
  8
0
  6
Continuous
 62
     7
100
AcDbLine
 10
233.8519070959348
 20
858.924999648513
 30
0.0
 11
233.8519070959348
 21
863.0249441904009
 31
0.0
  0
LINE
  5
219
330
55
100
AcDbEntity
  8
0
  6
Continuous
 62
     7
100
AcDbLine
 10
244.7250605959348
 20
870.821972148513
 30
0.0
 11
244.7250605959348
 21
884.374999648513
 31
0.0
  0
LINE
  5
21A
330
55
100
AcDbEntity
  8
0
  6
Continuous
 62
     7
100
AcDbLine
 10
240.4123110892333
 20
896.4250001485138
 30
0.0
 11
239.1123115349676
 21
901.125000148513
 31
0.0
  0
LINE
  5
21B
330
55
100
AcDbEntity
  8
0
  6
Continuous
 62
     7
100
AcDbLine
 10
239.1123115349676
 20
901.125000148513
 30
0.0
 11
225.1622075959348
 21
901.125000148513
 31
0.0
  0
LINE
  5
21C
330
55
100
AcDbEntity
  8
0
  6
Continuous
 62
     7
100
AcDbLine
 10
163.0250605959348
 20
861.9060031193014
 30
0.0
 11
199.0622075959348
 21
854.2460713551925
 31
0.0
  0
ARC
  5
21D
330
55
100
AcDbEntity
  8
0
  6
Continuous
 62
     7
100
AcDbCircle
 10
256.7029588354588
 20
856.1613531366424
 30
0.0
 40
0.9999999927916005
100
AcDbArc
 50
356.2230016521485
 51
161.8684773272915
  0
ARC
  5
21E
330
55
100
AcDbEntity
  8
0
  6
Continuous
 62
     7
100
AcDbCircle
 10
153.5711864582158
 20
871.6018976485129
 30
0.0
 40
11.99999840578339
100
AcDbArc
 50
321.9825256492388
 51
38.01747435075887
  0
ARC
  5
21F
330
55
100
AcDbEntity
  8
0
  6
Continuous
 62
     7
100
AcDbCircle
 10
210.3788414056834
 20
861.2155794328221
 30
0.0
 40
1.600030971668952
100
AcDbArc
 50
261.1846272745133
 51
301.8120950120058
  0
ARC
  5
220
330
55
100
AcDbEntity
  8
0
  6
Continuous
 62
     7
100
AcDbCircle
 10
213.7750426513618
 20
862.9353885335031
 30
0.0
 40
3.999982480207939
100
AcDbArc
 50
179.4326008128854
 51
230.3426474156638
  0
ARC
  5
221
330
55
100
AcDbEntity
  8
0
  6
Continuous
 62
     7
100
AcDbCircle
 10
234.6519071427322
 20
863.024944120908
 30
0.0
 40
0.8000000467974109
100
AcDbArc
 50
36.63248834861046
 51
179.9999950229381
  0
ARC
  5
222
330
55
100
AcDbEntity
  8
0
  6
Continuous
 62
     7
100
AcDbCircle
 10
241.2846715959349
 20
863.8249441485129
 30
0.0
 40
0.5
100
AcDbArc
 50
90.0
 51
216.632481718302
  0
ARC
  5
223
330
55
100
AcDbEntity
  8
0
  6
Continuous
 62
     7
100
AcDbCircle
 10
242.6555145959349
 20
863.8249441485129
 30
0.0
 40
0.499999999999883
100
AcDbArc
 50
19.2209261432926
 51
90.0
  0
ARC
  5
224
330
55
100
AcDbEntity
  8
0
  6
Continuous
 62
     7
100
AcDbCircle
 10
256.702958842592
 20
856.1613531352618
 30
0.0
 40
1.000000000000008
100
AcDbArc
 50
161.8684773793044
 51
163.6821946016364
  0
ARC
  5
225
330
55
100
AcDbEntity
  8
0
  6
Continuous
 62
     7
100
AcDbCircle
 10
250.5043743660246
 20
858.3686828489639
 30
0.0
 40
9.499968234491611
100
AcDbArc
 50
192.4611740349726
 51
223.1215133260429
  0
ARC
  5
226
330
55
100
AcDbEntity
  8
0
  6
Continuous
 62
     7
100
AcDbCircle
 10
254.7634573155205
 20
856.7939374112459
 30
0.0
 40
1.040966786000024
100
AcDbArc
 50
340.2582322222981
 51
342.0168683018561
  0
ARC
  5
227
330
55
100
AcDbEntity
  8
0
  6
Continuous
 62
     7
100
AcDbCircle
 10
254.7634573155205
 20
856.7939374112459
 30
0.0
 40
1.040966785999998
100
AcDbArc
 50
197.9831316981385
 51
340.2582322222981
  0
ARC
  5
228
330
55
100
AcDbEntity
  8
0
  6
Continuous
 62
     7
100
AcDbCircle
 10
210.0786594541956
 20
852.4671403170071
 30
0.0
 40
35.00001737392071
100
AcDbArc
 50
6.09771980068277
 51
19.22092614327989
  0
ARC
  5
229
330
55
100
AcDbEntity
  8
0
  6
Continuous
 62
     7
100
AcDbCircle
 10
288.3750109006929
 20
867.8419905041847
 30
0.0
 40
36.42169604082549
100
AcDbArc
 50
185.5412909011312
 51
198.1895189934468
  0
ENDBLK
  5
57
330
55
100
AcDbEntity
  8
0
100
AcDbBlockEnd
  0
BLOCK
  5
5A
330
58
100
AcDbEntity
  8
0
100
AcDbBlockBegin
  2
Rckans1
 70
     0
 10
210.3768284552247
 20
876.4999999999999
 30
0.0
  3
Rckans1
  1

  0
INSERT
  5
59
330
58
100
AcDbEntity
  8
0
100
AcDbBlockReference
  2
STN-16-Select__3
 10
163.0250605959348
 20
851.8201945725496
 30
0.0
  0
MTEXT
  5
22A
330
58
100
AcDbEntity
  8
1
 62
     6
100
AcDbMText
 10
210.376828455222
 20
846.875
 30
0.0
 40
5.0
 41
0.0
 71
     2
 72
     1
  1
 
  7
CONVERTER_11
 73
     1
 44
1.32052821128451
  0
ENDBLK
  5
5B
330
58
100
AcDbEntity
  8
0
100
AcDbBlockEnd
  0
BLOCK
  5
5D
330
5C
100
AcDbEntity
  8
0
100
AcDbBlockBegin
  2
STN-16-Select__4
 70
     0
 10
140.467723754054
 20
851.8201945725496
 30
0.0
  3
STN-16-Select__4
  1

  0
LINE
  5
22B
330
5C
100
AcDbEntity
  8
0
  6
Continuous
 62
     7
100
AcDbLine
 10
140.467723754054
 20
884.3750001740239
 30
0.0
 11
140.467723754054
 21
896.4250001485138
 31
0.0
  0
LINE
  5
22C
330
5C
100
AcDbEntity
  8
0
  6
Continuous
 62
     7
100
AcDbLine
 10
140.467723754054
 20
870.821972148513
 30
0.0
 11
140.467723754054
 21
884.3750001740239
 31
0.0
  0
LINE
  5
22D
330
5C
100
AcDbEntity
  8
0
  6
Continuous
 62
     7
100
AcDbLine
 10
140.467723754054
 20
857.1613531352618
 30
0.0
 11
140.467723754054
 21
864.3249996485135
 31
0.0
  0
LINE
  5
22E
330
5C
100
AcDbEntity
  8
0
  6
Continuous
 62
     7
100
AcDbLine
 10
140.467723754054
 20
851.8201945725496
 30
0.0
 11
140.467723754054
 21
851.874999648513
 31
0.0
  0
LINE
  5
22F
330
5C
100
AcDbEntity
  8
0
  6
Continuous
 62
     7
100
AcDbLine
 10
152.4677237582904
 20
901.125000148513
 30
0.0
 11
140.467723754054
 21
901.125000148513
 31
0.0
  0
LINE
  5
230
330
5C
100
AcDbEntity
  8
0
  6
Continuous
 62
     7
100
AcDbLine
 10
140.467723754054
 20
896.4250001485138
 30
0.0
 11
140.467723754054
 21
901.125000148513
 31
0.0
  0
LINE
  5
231
330
5C
100
AcDbEntity
  8
0
  6
Continuous
 62
     7
100
AcDbLine
 10
152.4677237582904
 20
896.4250001485138
 30
0.0
 11
140.467723754054
 21
896.4250001485138
 31
0.0
  0
LINE
  5
232
330
5C
100
AcDbEntity
  8
0
  6
Continuous
 62
     7
100
AcDbLine
 10
152.4677237582904
 20
857.1613531352618
 30
0.0
 11
152.4677237582904
 21
864.3249996485135
 31
0.0
  0
LINE
  5
233
330
5C
100
AcDbEntity
  8
0
  6
Continuous
 62
     7
100
AcDbLine
 10
152.4677237582904
 20
856.0954798130501
 30
0.0
 11
152.4677237582904
 21
851.874999648513
 31
0.0
  0
LINE
  5
234
330
5C
100
AcDbEntity
  8
0
  6
Continuous
 62
     7
100
AcDbLine
 10
152.4677237582904
 20
884.3750001740239
 30
0.0
 11
152.4677237582904
 21
896.4250001485138
 31
0.0
  0
LINE
  5
235
330
5C
100
AcDbEntity
  8
0
  6
Continuous
 62
     7
100
AcDbLine
 10
152.4677237582904
 20
870.821972148513
 30
0.0
 11
152.4677237582904
 21
884.3750001740239
 31
0.0
  0
LINE
  5
236
330
5C
100
AcDbEntity
  8
0
  6
Continuous
 62
     7
100
AcDbLine
 10
152.4677237582904
 20
851.8201945725496
 30
0.0
 11
152.4677237582904
 21
851.874999648513
 31
0.0
  0
LINE
  5
237
330
5C
100
AcDbEntity
  8
0
  6
Continuous
 62
     2
100
AcDbLine
 10
152.4677237582904
 20
856.0954798130501
 30
0.0
 11
140.467723754054
 21
856.0954798139999
 31
0.0
  0
LINE
  5
238
330
5C
100
AcDbEntity
  8
0
  6
Continuous
 62
     7
100
AcDbLine
 10
152.4677237582904
 20
896.4250001485138
 30
0.0
 11
152.4677237582904
 21
901.125000148513
 31
0.0
  0
LINE
  5
239
330
5C
100
AcDbEntity
  8
0
  6
Continuous
 62
     7
100
AcDbLine
 10
152.4677237582904
 20
851.874999648513
 30
0.0
 11
140.467723754054
 21
851.874999648513
 31
0.0
  0
LINE
  5
23A
330
5C
100
AcDbEntity
  8
0
  6
Continuous
 62
     7
100
AcDbLine
 10
152.4677237582904
 20
856.0954798130501
 30
0.0
 11
152.4677237582904
 21
857.1613531352618
 31
0.0
  0
LINE
  5
23B
330
5C
100
AcDbEntity
  8
0
  6
Continuous
 62
     7
100
AcDbLine
 10
140.467723754054
 20
857.1613531352618
 30
0.0
 11
152.4677237582904
 21
857.1613531352618
 31
0.0
  0
LINE
  5
23C
330
5C
100
AcDbEntity
  8
0
  6
Continuous
 62
     7
100
AcDbLine
 10
140.467723754054
 20
856.0954798139999
 30
0.0
 11
140.467723754054
 21
857.1613531352618
 31
0.0
  0
LINE
  5
23D
330
5C
100
AcDbEntity
  8
0
  6
Continuous
 62
     7
100
AcDbLine
 10
140.467723754054
 20
851.874999648513
 30
0.0
 11
140.467723754054
 21
856.0954798139999
 31
0.0
  0
LINE
  5
23E
330
5C
100
AcDbEntity
  8
0
  6
Continuous
 62
     7
100
AcDbLine
 10
140.467723754054
 20
864.3249996485135
 30
0.0
 11
140.467723754054
 21
868.5986660826843
 31
0.0
  0
LINE
  5
23F
330
5C
100
AcDbEntity
  8
0
  6
Continuous
 62
     7
100
AcDbLine
 10
152.4677237582904
 20
864.3249996485135
 30
0.0
 11
152.4677237582904
 21
868.5986660826843
 31
0.0
  0
LINE
  5
240
330
5C
100
AcDbEntity
  8
0
  6
Continuous
 62
     7
100
AcDbLine
 10
140.467723754054
 20
868.5986660826843
 30
0.0
 11
140.467723754054
 21
870.821972148513
 31
0.0
  0
LINE
  5
241
330
5C
100
AcDbEntity
  8
0
  6
Continuous
 62
     7
100
AcDbLine
 10
152.4677237582904
 20
870.821972148513
 30
0.0
 11
140.467723754054
 21
870.821972148513
 31
0.0
  0
LINE
  5
242
330
5C
100
AcDbEntity
  8
0
  6
Continuous
 62
     7
100
AcDbLine
 10
152.4677237582904
 20
868.5986660826843
 30
0.0
 11
152.4677237582904
 21
870.821972148513
 31
0.0
  0
LINE
  5
243
330
5C
100
AcDbEntity
  8
0
  6
Continuous
 62
     7
100
AcDbLine
 10
152.4677237582904
 20
884.3750001740239
 30
0.0
 11
140.467723754054
 21
884.3750001740239
 31
0.0
  0
LINE
  5
244
330
5C
100
AcDbEntity
  8
0
  6
Continuous
 62
     7
100
AcDbLine
 10
152.4677237582904
 20
868.5986660826843
 30
0.0
 11
140.467723754054
 21
868.5986660826843
 31
0.0
  0
LINE
  5
245
330
5C
100
AcDbEntity
  8
0
  6
Continuous
 62
     7
100
AcDbLine
 10
152.4677237582904
 20
864.3249996485135
 30
0.0
 11
140.467723754054
 21
864.3249996485135
 31
0.0
  0
LINE
  5
246
330
5C
100
AcDbEntity
  8
0
  6
Continuous
 62
     7
100
AcDbLine
 10
152.4677237582904
 20
851.8201945725496
 30
0.0
 11
140.467723754054
 21
851.8201945725496
 31
0.0
  0
ENDBLK
  5
5E
330
5C
100
AcDbEntity
  8
0
100
AcDbBlockEnd
  0
BLOCK
  5
61
330
5F
100
AcDbEntity
  8
0
100
AcDbBlockBegin
  2
SA_Links1
 70
     0
 10
146.5427235633141
 20
876.4999999999999
 30
0.0
  3
SA_Links1
  1

  0
INSERT
  5
60
330
5F
100
AcDbEntity
  8
0
100
AcDbBlockReference
  2
STN-16-Select__4
 10
140.467723754054
 20
851.8201945725496
 30
0.0
  0
MTEXT
  5
247
330
5F
100
AcDbEntity
  8
1
 62
     6
100
AcDbMText
 10
146.5427235633141
 20
846.875
 30
0.0
 40
5.0
 41
0.0
 71
     2
 72
     1
  1
 
  7
CONVERTER_11
 73
     1
 44
1.32052821128451
  0
ENDBLK
  5
62
330
5F
100
AcDbEntity
  8
0
100
AcDbBlockEnd
  0
BLOCK
  5
64
330
63
100
AcDbEntity
  8
0
100
AcDbBlockBegin
  2
STN-16-Select__5
 70
     0
 10
-13.39643698549203
 20
851.8201945725497
 30
0.0
  3
STN-16-Select__5
  1

  0
LINE
  5
248
330
63
100
AcDbEntity
  8
0
  6
Continuous
 62
     7
100
AcDbLine
 10
-13.39643698549203
 20
899.4579656485131
 30
0.0
 11
-11.39643701592514
 21
899.457965648513
 31
0.0
  0
LINE
  5
249
330
63
100
AcDbEntity
  8
0
  6
Continuous
 62
     7
100
AcDbLine
 10
-3.39643701592514
 20
899.457965648513
 30
0.0
 11
-1.3964369812557
 21
899.4579656485131
 31
0.0
  0
LINE
  5
24A
330
63
100
AcDbEntity
  8
0
  6
Continuous
 62
     7
100
AcDbLine
 10
-3.39643701592514
 20
899.457965648513
 30
0.0
 11
-11.39643701592514
 21
899.457965648513
 31
0.0
  0
LINE
  5
24B
330
63
100
AcDbEntity
  8
0
  6
Continuous
 62
     7
100
AcDbLine
 10
-11.39643701592514
 20
899.457965648513
 30
0.0
 11
-11.39643701592514
 21
896.519059781264
 31
0.0
  0
LINE
  5
24C
330
63
100
AcDbEntity
  8
0
  6
Continuous
 62
     7
100
AcDbLine
 10
-3.39643701592514
 20
899.457965648513
 30
0.0
 11
-3.39643701592514
 21
896.5190597812639
 31
0.0
  0
LINE
  5
24D
330
63
100
AcDbEntity
  8
0
  6
Continuous
 62
     2
100
AcDbLine
 10
-2.93238963578666
 20
888.8431019717162
 30
0.0
 11
-2.93238963578664
 21
892.3918803943966
 31
0.0
  0
LINE
  5
24E
330
63
100
AcDbEntity
  8
0
  6
Continuous
 62
     7
100
AcDbLine
 10
-1.3964369812557
 20
899.4626094381925
 30
0.0
 11
-1.3964369812557
 21
899.4579656485131
 31
0.0
  0
LINE
  5
24F
330
63
100
AcDbEntity
  8
0
  6
Continuous
 62
     7
100
AcDbLine
 10
-1.3964369812557
 20
901.1250001485131
 30
0.0
 11
-1.3964369812557
 21
899.4626094381925
 31
0.0
  0
LINE
  5
250
330
63
100
AcDbEntity
  8
0
  6
Continuous
 62
     7
100
AcDbLine
 10
-1.3964369812557
 20
852.6951514360217
 30
0.0
 11
-1.3964369812557
 21
851.8201945725497
 31
0.0
  0
LINE
  5
251
330
63
100
AcDbEntity
  8
0
  6
Continuous
 62
     7
100
AcDbLine
 10
-1.3964369812557
 20
864.2110772930334
 30
0.0
 11
-1.3964369812557
 21
861.9060031193015
 31
0.0
  0
LINE
  5
252
330
63
100
AcDbEntity
  8
0
  6
Continuous
 62
     7
100
AcDbLine
 10
-1.3964369812557
 20
878.9927180039922
 30
0.0
 11
-1.3964369812557
 21
864.2110772930334
 31
0.0
  0
LINE
  5
253
330
63
100
AcDbEntity
  8
0
  6
Continuous
 62
     7
100
AcDbLine
 10
-13.39643698549203
 20
852.6951514360217
 30
0.0
 11
-13.39643698549203
 21
851.8201945725497
 31
0.0
  0
LINE
  5
254
330
63
100
AcDbEntity
  8
0
  6
Continuous
 62
     7
100
AcDbLine
 10
-13.39643698549203
 20
861.9060031193015
 30
0.0
 11
-13.39643698549203
 21
854.2460713551926
 31
0.0
  0
LINE
  5
255
330
63
100
AcDbEntity
  8
0
  6
Continuous
 62
     7
100
AcDbLine
 10
-13.39643698549203
 20
852.6951514360217
 30
0.0
 11
-13.39643698549203
 21
854.2460713551926
 31
0.0
  0
LINE
  5
256
330
63
100
AcDbEntity
  8
0
  6
Continuous
 62
     7
100
AcDbLine
 10
-13.39643698549203
 20
864.2110772930334
 30
0.0
 11
-13.39643698549203
 21
861.9060031193015
 31
0.0
  0
LINE
  5
257
330
63
100
AcDbEntity
  8
0
  6
Continuous
 62
     7
100
AcDbLine
 10
-13.39643698549203
 20
878.9927180039922
 30
0.0
 11
-13.39643698549203
 21
864.2110772930334
 31
0.0
  0
LINE
  5
258
330
63
100
AcDbEntity
  8
0
  6
Continuous
 62
     7
100
AcDbLine
 10
-13.39643698549203
 20
899.4626094381925
 30
0.0
 11
-13.39643698549203
 21
899.4579656485131
 31
0.0
  0
LINE
  5
259
330
63
100
AcDbEntity
  8
0
  6
Continuous
 62
     7
100
AcDbLine
 10
-13.39643698549203
 20
901.1250001485131
 30
0.0
 11
-13.39643698549203
 21
899.4626094381925
 31
0.0
  0
LINE
  5
25A
330
63
100
AcDbEntity
  8
0
  6
Continuous
 62
     7
100
AcDbLine
 10
-13.39643698549203
 20
899.4579656485131
 30
0.0
 11
-13.39643698549203
 21
887.2434786980194
 31
0.0
  0
LINE
  5
25B
330
63
100
AcDbEntity
  8
0
  6
Continuous
 62
     7
100
AcDbLine
 10
-1.3964369812557
 20
887.2434786980194
 30
0.0
 11
-1.3964369812557
 21
878.9927180039922
 31
0.0
  0
LINE
  5
25C
330
63
100
AcDbEntity
  8
0
  6
Continuous
 62
     7
100
AcDbLine
 10
-1.3964369812557
 20
899.4579656485131
 30
0.0
 11
-1.3964369812557
 21
887.2434786980194
 31
0.0
  0
LINE
  5
25D
330
63
100
AcDbEntity
  8
0
  6
Continuous
 62
     7
100
AcDbLine
 10
-2.39643703457216
 20
891.5046857887185
 30
0.0
 11
-2.39643703457216
 21
889.7302965773944
 31
0.0
  0
LINE
  5
25E
330
63
100
AcDbEntity
  8
0
  6
Continuous
 62
     7
100
AcDbLine
 10
-13.39643698549203
 20
878.9927180039922
 30
0.0
 11
-1.3964369812557
 21
878.9927180039922
 31
0.0
  0
LINE
  5
25F
330
63
100
AcDbEntity
  8
0
  6
Continuous
 62
     7
100
AcDbLine
 10
-11.39643701592514
 20
896.519059781264
 30
0.0
 11
-3.39643701592514
 21
896.5190597812639
 31
0.0
  0
LINE
  5
260
330
63
100
AcDbEntity
  8
0
  6
Continuous
 62
     7
100
AcDbLine
 10
-13.39643698549203
 20
887.2434786980194
 30
0.0
 11
-13.39643698549203
 21
878.9927180039922
 31
0.0
  0
LINE
  5
261
330
63
100
AcDbEntity
  8
0
  6
Continuous
 62
     7
100
AcDbLine
 10
-12.39643703457216
 20
889.7302965773944
 30
0.0
 11
-12.39643703457216
 21
891.5046857887185
 31
0.0
  0
LINE
  5
262
330
63
100
AcDbEntity
  8
0
  6
Continuous
 62
     2
100
AcDbLine
 10
-11.86048443335765
 20
888.8431019717162
 30
0.0
 11
-11.86048443335765
 21
892.3918803943966
 31
0.0
  0
LINE
  5
263
330
63
100
AcDbEntity
  8
0
  6
Continuous
 62
     7
100
AcDbLine
 10
-13.39643698549203
 20
887.2434786980194
 30
0.0
 11
-1.3964369812557
 21
887.2434786980194
 31
0.0
  0
LINE
  5
264
330
63
100
AcDbEntity
  8
0
  6
Continuous
 62
     7
100
AcDbLine
 10
-13.39643698549203
 20
861.9060031193015
 30
0.0
 11
-1.3964369812557
 21
861.9060031193015
 31
0.0
  0
LINE
  5
265
330
63
100
AcDbEntity
  8
0
  6
Continuous
 62
     7
100
AcDbLine
 10
-1.3964369812557
 20
861.9060031193015
 30
0.0
 11
-1.3964369812557
 21
854.2460713551926
 31
0.0
  0
LINE
  5
266
330
63
100
AcDbEntity
  8
0
  6
Continuous
 62
     7
100
AcDbLine
 10
-13.39643698549203
 20
854.2460713551926
 30
0.0
 11
-1.3964369812557
 21
854.2460713551926
 31
0.0
  0
LINE
  5
267
330
63
100
AcDbEntity
  8
0
  6
Continuous
 62
     7
100
AcDbLine
 10
-13.39643698549203
 20
852.6951514360217
 30
0.0
 11
-1.3964369812557
 21
852.6951514360217
 31
0.0
  0
LINE
  5
268
330
63
100
AcDbEntity
  8
0
  6
Continuous
 62
     7
100
AcDbLine
 10
-1.3964369812557
 20
852.6951514360217
 30
0.0
 11
-1.3964369812557
 21
854.2460713551926
 31
0.0
  0
LINE
  5
269
330
63
100
AcDbEntity
  8
0
  6
Continuous
 62
     7
100
AcDbLine
 10
-13.39643698549203
 20
851.8201945725497
 30
0.0
 11
-1.3964369812557
 21
851.8201945725497
 31
0.0
  0
LINE
  5
26A
330
63
100
AcDbEntity
  8
0
  6
Continuous
 62
     7
100
AcDbLine
 10
-13.39643698549203
 20
864.2110772930334
 30
0.0
 11
-1.3964369812557
 21
864.2110772930334
 31
0.0
  0
LINE
  5
26B
330
63
100
AcDbEntity
  8
0
  6
Continuous
 62
     7
100
AcDbLine
 10
-13.39643698549203
 20
899.4626094381925
 30
0.0
 11
-1.3964369812557
 21
899.4626094381925
 31
0.0
  0
LINE
  5
26C
330
63
100
AcDbEntity
  8
0
  6
Continuous
 62
     7
100
AcDbLine
 10
-13.39643698549203
 20
901.1250001485131
 30
0.0
 11
-1.3964369812557
 21
901.1250001485131
 31
0.0
  0
LINE
  5
26D
330
63
100
AcDbEntity
  8
0
  6
Continuous
 62
     7
100
AcDbLine
 10
-6.86048443332214
 20
887.7496089945636
 30
0.0
 11
-7.93238963582217
 21
887.7496089945636
 31
0.0
  0
LINE
  5
26E
330
63
100
AcDbEntity
  8
0
  6
Continuous
 62
     2
100
AcDbLine
 10
-6.86048443332214
 20
887.7496089945636
 30
0.0
 11
-6.86048443332214
 21
893.4853733715493
 31
0.0
  0
LINE
  5
26F
330
63
100
AcDbEntity
  8
0
  6
Continuous
 62
     2
100
AcDbLine
 10
-7.93238963582217
 20
887.7496089945636
 30
0.0
 11
-7.93238963582217
 21
893.4853733715493
 31
0.0
  0
LINE
  5
270
330
63
100
AcDbEntity
  8
0
  6
Continuous
 62
     7
100
AcDbLine
 10
-7.93238963582217
 20
893.4853733715493
 30
0.0
 11
-6.86048443332214
 21
893.4853733715493
 31
0.0
  0
SPLINE
  5
271
330
63
100
AcDbEntity
  8
0
  6
Continuous
 62
     7
100
AcDbSpline
210
0.0
220
0.0
230
1.0
 70
     8
 71
     3
 72
    11
 73
     7
 74
     5
 42
0.000000001
 43
0.0000000001
 44
0.00000001
 40
0.0
 40
0.0
 40
0.0
 40
0.0
 40
0.2405526313586107
 40
0.4939111464932466
 40
0.7698519317542497
 40
1.073836008732477
 40
1.073836008732477
 40
1.073836008732477
 40
1.073836008732477
 10
-2.396437034572157
 20
891.5046857887185
 30
0.0
 10
-2.40341641714038
 20
891.5851437756482
 30
0.0
 10
-2.417746746176946
 20
891.750342949685
 30
0.0
 10
-2.530427496272087
 20
891.9859196855646
 30
0.0
 10
-2.701176517880274
 20
892.2075691141222
 30
0.0
 10
-2.852873402768268
 20
892.3284941238522
 30
0.0
 10
-2.932389635786638
 20
892.3918803943966
 30
0.0
 11
-2.396437034572157
 21
891.5046857887185
 31
0.0
 11
-2.431123989049706
 21
891.7427244088818
 31
0.0
 11
-2.534222131465392
 21
891.9741575779401
 31
0.0
 11
-2.702870706527061
 21
892.1925631097345
 31
0.0
 11
-2.932389635786638
 21
892.3918803943966
 31
0.0
  0
SPLINE
  5
272
330
63
100
AcDbEntity
  8
0
  6
Continuous
 62
     7
100
AcDbSpline
210
0.0
220
0.0
230
1.0
 70
     8
 71
     3
 72
    11
 73
     7
 74
     5
 42
0.000000001
 43
0.0000000001
 44
0.00000001
 40
0.0
 40
0.0
 40
0.0
 40
0.0
 40
0.3039840769781604
 40
0.5799248622391675
 40
0.833283377373909
 40
1.07383600873252
 40
1.07383600873252
 40
1.07383600873252
 40
1.07383600873252
 10
-2.93238963578666
 20
888.8431019717162
 30
0.0
 10
-2.852873402768283
 20
888.9064882422608
 30
0.0
 10
-2.701176517880262
 20
889.0274132519903
 30
0.0
 10
-2.530427496272061
 20
889.2490626805486
 30
0.0
 10
-2.417746746176964
 20
889.484639416428
 30
0.0
 10
-2.403416417140385
 20
889.6498385904648
 30
0.0
 10
-2.396437034572157
 20
889.7302965773944
 30
0.0
 11
-2.93238963578666
 21
888.8431019717162
 31
0.0
 11
-2.702870706527072
 21
889.0424192563783
 31
0.0
 11
-2.534222131465397
 21
889.2608247881726
 31
0.0
 11
-2.431123989049706
 21
889.492257957231
 31
0.0
 11
-2.396437034572157
 21
889.7302965773944
 31
0.0
  0
SPLINE
  5
273
330
63
100
AcDbEntity
  8
0
  6
Continuous
 62
     7
100
AcDbSpline
210
0.0
220
0.0
230
1.0
 70
     8
 71
     3
 72
    13
 73
     9
 74
     7
 42
0.000000001
 43
0.0000000001
 44
0.00000001
 40
0.0
 40
0.0
 40
0.0
 40
0.0
 40
0.4152893754630643
 40
0.8119203720877013
 40
1.173965561168671
 40
1.491421848916089
 40
1.764440279919797
 40
2.008140820443056
 40
2.008140820443056
 40
2.008140820443056
 40
2.008140820443056
 10
-7.396437015925128
 20
894.0589498129226
 30
0.0
 10
-7.257849979562154
 20
894.0648312028177
 30
0.0
 10
-6.98690243208099
 20
894.0763297490527
 30
0.0
 10
-6.604259236535009
 20
894.168266500169
 30
0.0
 10
-6.271412171777096
 20
894.3092466044945
 30
0.0
 10
-6.013563764010401
 20
894.4965292289664
 30
0.0
 10
-5.833019798868388
 20
894.721854757014
 30
0.0
 10
-5.808161124042311
 20
894.8950078116062
 30
0.0
 10
-5.796437015925125
 20
894.9766721132403
 30
0.0
 11
-7.396437015925128
 21
894.0589498129226
 31
0.0
 11
-6.982326654165334
 21
894.0902206783352
 31
0.0
 11
-6.596437015925126
 21
894.1819012875457
 31
0.0
 11
-6.265066467656645
 21
894.3277446244474
 31
0.0
 11
-6.010796369870024
 21
894.5178109630815
 31
0.0
 11
-5.850956105896852
 21
894.7391481671281
 31
0.0
 11
-5.796437015925125
 21
894.9766721132403
 31
0.0
  0
SPLINE
  5
274
330
63
100
AcDbEntity
  8
0
  6
Continuous
 62
     7
100
AcDbSpline
210
0.0
220
0.0
230
1.0
 70
     8
 71
     3
 72
    13
 73
     9
 74
     7
 42
0.000000001
 43
0.0000000001
 44
0.00000001
 40
0.0
 40
0.0
 40
0.0
 40
0.0
 40
0.2437005405232584
 40
0.5167189715269669
 40
0.8341752592743863
 40
1.196220448355355
 40
1.592851444979991
 40
2.008140820443055
 40
2.008140820443055
 40
2.008140820443055
 40
2.008140820443055
 10
-8.996437015925128
 20
894.9766721132403
 30
0.0
 10
-8.984712907807944
 20
894.8950078116063
 30
0.0
 10
-8.959854232981868
 20
894.7218547570137
 30
0.0
 10
-8.779310267839854
 20
894.4965292289667
 30
0.0
 10
-8.521461860073156
 20
894.3092466044944
 30
0.0
 10
-8.188614795315246
 20
894.1682665001689
 30
0.0
 10
-7.805971599769265
 20
894.0763297490528
 30
0.0
 10
-7.535024052288099
 20
894.0648312028177
 30
0.0
 10
-7.396437015925128
 20
894.0589498129226
 30
0.0
 11
-8.996437015925128
 21
894.9766721132403
 31
0.0
 11
-8.941917925953403
 21
894.7391481671281
 31
0.0
 11
-8.782077661980232
 21
894.5178109630815
 31
0.0
 11
-8.527807564193608
 21
894.3277446244474
 31
0.0
 11
-8.196437015925127
 21
894.1819012875457
 31
0.0
 11
-7.810547377684921
 21
894.0902206783352
 31
0.0
 11
-7.396437015925128
 21
894.0589498129226
 31
0.0
  0
SPLINE
  5
275
330
63
100
AcDbEntity
  8
0
  6
Continuous
 62
     7
100
AcDbSpline
210
0.0
220
0.0
230
1.0
 70
     8
 71
     3
 72
    19
 73
    15
 74
    13
 42
0.000000001
 43
0.0000000001
 44
0.00000001
 40
0.0
 40
0.0
 40
0.0
 40
0.0
 40
0.2437005413038813
 40
0.5167189730420076
 40
0.8341752657542281
 40
1.196220457870815
 40
1.592851457517467
 40
2.008140830117015
 40
2.423430202716562
 40
2.820061202363216
 40
3.182106394479802
 40
3.499562687192021
 40
3.772581118930149
 40
4.01628166023403
 40
4.01628166023403
 40
4.01628166023403
 40
4.01628166023403
 10
-5.796437015925125
 20
894.9766721132403
 30
0.0
 10
-5.808161124079867
 20
895.058334463062
 30
0.0
 10
-5.833019802190194
 20
895.2314833772003
 30
0.0
 10
-6.013563755211996
 20
895.4568447373938
 30
0.0
 10
-6.271412170296277
 20
895.6439583337394
 30
0.0
 10
-6.604259236591194
 20
895.7857007819534
 30
0.0
 10
-6.986902432269684
 20
895.874402109536
 30
0.0
 10
-7.396437015925127
 20
895.9046202977087
 30
0.0
 10
-7.80597159958057
 20
895.8744021095363
 30
0.0
 10
-8.18861479525906
 20
895.785700781953
 30
0.0
 10
-8.521461861553977
 20
895.6439583337396
 30
0.0
 10
-8.779310276638256
 20
895.4568447373936
 30
0.0
 10
-8.95985422966006
 20
895.2314833772002
 30
0.0
 10
-8.984712907770387
 20
895.0583344630621
 30
0.0
 10
-8.996437015925128
 20
894.9766721132403
 30
0.0
 11
-5.796437015925125
 21
894.9766721132403
 31
0.0
 11
-5.850956105896852
 21
895.2141960593525
 31
0.0
 11
-6.010796369870024
 21
895.4355332633991
 31
0.0
 11
-6.265066467656645
 21
895.6255996020332
 31
0.0
 11
-6.596437015925126
 21
895.7714429389349
 31
0.0
 11
-6.982326654165334
 21
895.8631235481454
 31
0.0
 11
-7.396437015925127
 21
895.894394413558
 31
0.0
 11
-7.810547377684919
 21
895.8631235481454
 31
0.0
 11
-8.196437015925127
 21
895.7714429389349
 31
0.0
 11
-8.527807564193608
 21
895.6255996020332
 31
0.0
 11
-8.782077661980228
 21
895.4355332633991
 31
0.0
 11
-8.941917925953401
 21
895.2141960593525
 31
0.0
 11
-8.996437015925128
 21
894.9766721132403
 31
0.0
  0
SPLINE
  5
276
330
63
100
AcDbEntity
  8
0
  6
Continuous
 62
     7
100
AcDbSpline
210
0.0
220
0.0
230
1.0
 70
     8
 71
     3
 72
    11
 73
     7
 74
     5
 42
0.000000001
 43
0.0000000001
 44
0.00000001
 40
0.0
 40
0.0
 40
0.0
 40
0.0
 40
0.240552631358611
 40
0.4939111464933539
 40
0.7698519317544532
 40
1.073836008732538
 40
1.073836008732538
 40
1.073836008732538
 40
1.073836008732538
 10
-12.39643703457216
 20
889.7302965773944
 30
0.0
 10
-12.38945765200393
 20
889.6498385904645
 30
0.0
 10
-12.37512732296736
 20
889.4846394164285
 30
0.0
 10
-12.26244657287221
 20
889.2490626805479
 30
0.0
 10
-12.09169755126412
 20
889.0274132519903
 30
0.0
 10
-11.94000066637604
 20
888.9064882422606
 30
0.0
 10
-11.86048443335765
 20
888.8431019717162
 30
0.0
 11
-12.39643703457216
 21
889.7302965773944
 31
0.0
 11
-12.36175008009461
 21
889.492257957231
 31
0.0
 11
-12.25865193767892
 21
889.2608247881726
 31
0.0
 11
-12.09000336261724
 21
889.0424192563781
 31
0.0
 11
-11.86048443335765
 21
888.8431019717162
 31
0.0
  0
SPLINE
  5
277
330
63
100
AcDbEntity
  8
0
  6
Continuous
 62
     7
100
AcDbSpline
210
0.0
220
0.0
230
1.0
 70
     8
 71
     3
 72
    11
 73
     7
 74
     5
 42
0.000000001
 43
0.0000000001
 44
0.00000001
 40
0.0
 40
0.0
 40
0.0
 40
0.0
 40
0.3039840769782325
 40
0.579924862239243
 40
0.8332833773738819
 40
1.073836008732493
 40
1.073836008732493
 40
1.073836008732493
 40
1.073836008732493
 10
-11.86048443335765
 20
892.3918803943966
 30
0.0
 10
-11.94000066637602
 20
892.3284941238521
 30
0.0
 10
-12.09169755126402
 20
892.2075691141222
 30
0.0
 10
-12.26244657287222
 20
891.9859196855646
 30
0.0
 10
-12.37512732296737
 20
891.7503429496851
 30
0.0
 10
-12.38945765200394
 20
891.5851437756479
 30
0.0
 10
-12.39643703457216
 20
891.5046857887185
 30
0.0
 11
-11.86048443335765
 21
892.3918803943966
 31
0.0
 11
-12.09000336261724
 21
892.1925631097345
 31
0.0
 11
-12.25865193767892
 21
891.9741575779401
 31
0.0
 11
-12.36175008009461
 21
891.7427244088818
 31
0.0
 11
-12.39643703457216
 21
891.5046857887185
 31
0.0
  0
SPLINE
  5
278
330
63
100
AcDbEntity
  8
0
  6
Continuous
 62
     7
100
AcDbSpline
210
0.0
220
0.0
230
1.0
 70
     8
 71
     3
 72
    11
 73
     7
 74
     5
 42
0.000000001
 43
0.0000000001
 44
0.00000001
 40
0.0
 40
0.0
 40
0.0
 40
0.0
 40
1.122403271413624
 40
2.207022284595037
 40
3.220113410085816
 40
4.136504982169244
 40
4.136504982169244
 40
4.136504982169244
 40
4.136504982169244
 10
-6.86048443332214
 20
887.7496089945636
 30
0.0
 10
-6.485914278965141
 20
887.7631624394211
 30
0.0
 10
-5.749383392471058
 20
887.7898130847002
 30
0.0
 10
-4.695498676343776
 20
888.010459617331
 30
0.0
 10
-3.737263780406636
 20
888.335574676124
 30
0.0
 10
-3.191564780541436
 20
888.6796746012888
 30
0.0
 10
-2.93238963578666
 20
888.8431019717162
 30
0.0
 11
-6.86048443332214
 21
887.7496089945636
 31
0.0
 11
-5.740449802123665
 21
887.82248922478
 31
0.0
 11
-4.677340586382578
 21
888.0374245694076
 31
0.0
 11
-3.72518992172784
 21
888.3834921129317
 31
0.0
 11
-2.93238963578666
 21
888.8431019717162
 31
0.0
  0
SPLINE
  5
279
330
63
100
AcDbEntity
  8
0
  6
Continuous
 62
     7
100
AcDbSpline
210
0.0
220
0.0
230
1.0
 70
     8
 71
     3
 72
    11
 73
     7
 74
     5
 42
0.000000001
 43
0.0000000001
 44
0.00000001
 40
0.0
 40
0.0
 40
0.0
 40
0.0
 40
0.9163915720834286
 40
1.929482697574213
 40
3.014101710755608
 40
4.136504982169249
 40
4.136504982169249
 40
4.136504982169249
 40
4.136504982169249
 10
-2.932389635786638
 20
892.3918803943966
 30
0.0
 10
-3.191564780541415
 20
892.5553077648244
 30
0.0
 10
-3.737263780406617
 20
892.8994076899887
 30
0.0
 10
-4.695498676343747
 20
893.2245227487824
 30
0.0
 10
-5.749383392471064
 20
893.4451692814118
 30
0.0
 10
-6.485914278965138
 20
893.4718199266918
 30
0.0
 10
-6.860484433322139
 20
893.4853733715493
 30
0.0
 11
-2.932389635786638
 21
892.3918803943966
 31
0.0
 11
-3.725189921727819
 21
892.8514902531812
 31
0.0
 11
-4.677340586382561
 21
893.1975577967053
 31
0.0
 11
-5.740449802123655
 21
893.4124931413327
 31
0.0
 11
-6.860484433322139
 21
893.4853733715493
 31
0.0
  0
SPLINE
  5
27A
330
63
100
AcDbEntity
  8
0
  6
Continuous
 62
     7
100
AcDbSpline
210
0.0
220
0.0
230
1.0
 70
     8
 71
     3
 72
    11
 73
     7
 74
     5
 42
0.000000001
 43
0.0000000001
 44
0.00000001
 40
0.0
 40
0.0
 40
0.0
 40
0.0
 40
1.122403271413629
 40
2.207022284595014
 40
3.220113410085757
 40
4.136504982169244
 40
4.136504982169244
 40
4.136504982169244
 40
4.136504982169244
 10
-7.932389635822172
 20
893.4853733715493
 30
0.0
 10
-8.306959790179171
 20
893.4718199266919
 30
0.0
 10
-9.043490676673235
 20
893.4451692814121
 30
0.0
 10
-10.09737539280052
 20
893.2245227487821
 30
0.0
 10
-11.05561028873772
 20
892.8994076899888
 30
0.0
 10
-11.60130928860288
 20
892.5553077648245
 30
0.0
 10
-11.86048443335765
 20
892.3918803943966
 30
0.0
 11
-7.932389635822172
 21
893.4853733715493
 31
0.0
 11
-9.052424267020644
 21
893.4124931413327
 31
0.0
 11
-10.11553348276173
 21
893.1975577967053
 31
0.0
 11
-11.06768414741647
 21
892.8514902531813
 31
0.0
 11
-11.86048443335765
 21
892.3918803943966
 31
0.0
  0
SPLINE
  5
27B
330
63
100
AcDbEntity
  8
0
  6
Continuous
 62
     7
100
AcDbSpline
210
0.0
220
0.0
230
1.0
 70
     8
 71
     3
 72
    11
 73
     7
 74
     5
 42
0.000000001
 43
0.0000000001
 44
0.00000001
 40
0.0
 40
0.0
 40
0.0
 40
0.0
 40
0.916391572083427
 40
1.929482697574206
 40
3.014101710755594
 40
4.136504982169225
 40
4.136504982169225
 40
4.136504982169225
 40
4.136504982169225
 10
-11.86048443335765
 20
888.8431019717162
 30
0.0
 10
-11.60130928860287
 20
888.6796746012885
 30
0.0
 10
-11.05561028873768
 20
888.335574676124
 30
0.0
 10
-10.09737539280055
 20
888.0104596173306
 30
0.0
 10
-9.04349067667324
 20
887.7898130847009
 30
0.0
 10
-8.306959790179171
 20
887.7631624394212
 30
0.0
 10
-7.932389635822173
 20
887.7496089945636
 30
0.0
 11
-11.86048443335765
 21
888.8431019717162
 31
0.0
 11
-11.06768414741647
 21
888.3834921129317
 31
0.0
 11
-10.11553348276173
 21
888.0374245694076
 31
0.0
 11
-9.052424267020648
 21
887.8224892247802
 31
0.0
 11
-7.932389635822173
 21
887.7496089945636
 31
0.0
  0
ENDBLK
  5
65
330
63
100
AcDbEntity
  8
0
100
AcDbBlockEnd
  0
BLOCK
  5
68
330
66
100
AcDbEntity
  8
0
100
AcDbBlockBegin
  2
SA_Rechts1
 70
     0
 10
-7.47143679051577
 20
876.5
 30
0.0
  3
SA_Rechts1
  1

  0
INSERT
  5
67
330
66
100
AcDbEntity
  8
0
100
AcDbBlockReference
  2
STN-16-Select__5
 10
-13.39643698549203
 20
851.8201945725497
 30
0.0
  0
MTEXT
  5
27C
330
66
100
AcDbEntity
  8
1
 62
     6
100
AcDbMText
 10
-7.47143679051577
 20
846.875
 30
0.0
 40
5.0
 41
0.0
 71
     2
 72
     1
  1
 
  7
CONVERTER_11
 73
     1
 44
1.32052821128451
  0
ENDBLK
  5
69
330
66
100
AcDbEntity
  8
0
100
AcDbBlockEnd
  0
BLOCK
  5
6B
330
6A
100
AcDbEntity
  8
0
100
AcDbBlockBegin
  2
STN-16-Select__6
 70
     0
 10
34.36710321706417
 20
851.8201945725497
 30
0.0
  3
STN-16-Select__6
  1

  0
LINE
  5
27D
330
6A
100
AcDbEntity
  8
0
  6
Continuous
 62
     7
100
AcDbLine
 10
111.600906333071
 20
899.4579656485132
 30
0.0
 11
129.0450014637214
 21
887.2434786980194
 31
0.0
  0
LINE
  5
27E
330
6A
100
AcDbEntity
  8
0
  6
Continuous
 62
     7
100
AcDbLine
 10
129.0450014637214
 20
864.2110772930334
 30
0.0
 11
129.0450014637214
 21
861.9060031193015
 31
0.0
  0
LINE
  5
27F
330
6A
100
AcDbEntity
  8
0
  6
Continuous
 62
     7
100
AcDbLine
 10
129.0450014637214
 20
887.2434786980194
 30
0.0
 11
129.0450014637212
 21
878.9927180039922
 31
0.0
  0
LINE
  5
280
330
6A
100
AcDbEntity
  8
0
  6
Continuous
 62
     7
100
AcDbLine
 10
93.00785446372137
 20
854.2460713551926
 30
0.0
 11
93.00785446372137
 21
862.9749996485126
 31
0.0
  0
LINE
  5
281
330
6A
100
AcDbEntity
  8
0
  6
Continuous
 62
     7
100
AcDbLine
 10
36.27807812422883
 20
855.7488913570129
 30
0.0
 11
36.39749713305653
 21
853.939965438262
 31
0.0
  0
LINE
  5
282
330
6A
100
AcDbEntity
  8
0
  6
Continuous
 62
     7
100
AcDbLine
 10
38.11733046372089
 20
853.939965438262
 30
0.0
 11
36.39749713305653
 21
853.939965438262
 31
0.0
  0
LINE
  5
283
330
6A
100
AcDbEntity
  8
0
  6
Continuous
 62
     7
100
AcDbLine
 10
38.11733046372137
 20
855.9404515299385
 30
0.0
 11
38.11733046372089
 21
853.939965438262
 31
0.0
  0
LINE
  5
284
330
6A
100
AcDbEntity
  8
0
  6
Continuous
 62
     7
100
AcDbLine
 10
50.84185996372134
 20
857.2651150237575
 30
0.0
 11
50.84185996372135
 21
856.3187988346923
 31
0.0
  0
LINE
  5
285
330
6A
100
AcDbEntity
  8
0
  6
Continuous
 62
     7
100
AcDbLine
 10
49.79185996372136
 20
856.1849996485125
 30
0.0
 11
49.79185996372136
 21
857.5771018293387
 31
0.0
  0
LINE
  5
286
330
6A
100
AcDbEntity
  8
0
  6
Continuous
 62
     7
100
AcDbLine
 10
47.18940929809559
 20
856.1849996485139
 30
0.0
 11
49.79185996372136
 21
856.1849996485125
 31
0.0
  0
LINE
  5
287
330
6A
100
AcDbEntity
  8
0
  6
Continuous
 62
     7
100
AcDbLine
 10
36.16392696372136
 20
868.5986660826844
 30
0.0
 11
39.33913744346481
 21
870.821972148513
 31
0.0
  0
LINE
  5
288
330
6A
100
AcDbEntity
  8
0
  6
Continuous
 62
     7
100
AcDbLine
 10
39.94654378770066
 20
864.324999648513
 30
0.0
 11
36.16392696372139
 21
864.3249996485137
 31
0.0
  0
LINE
  5
289
330
6A
100
AcDbEntity
  8
0
  6
Continuous
 62
     7
100
AcDbLine
 10
36.16392696372139
 20
864.3249996485137
 30
0.0
 11
36.16392696372136
 21
868.5986660826844
 31
0.0
  0
LINE
  5
28A
330
6A
100
AcDbEntity
  8
0
  6
Continuous
 62
     7
100
AcDbLine
 10
85.71135108123502
 20
852.6951514360217
 30
0.0
 11
81.59500196372126
 21
851.8201945725497
 31
0.0
  0
LINE
  5
28B
330
6A
100
AcDbEntity
  8
0
  6
Continuous
 62
     7
100
AcDbLine
 10
38.29671765022389
 20
856.4725524664327
 30
0.0
 11
38.29672483518878
 21
856.4725524664327
 31
0.0
  0
LINE
  5
28C
330
6A
100
AcDbEntity
  8
0
  6
Continuous
 62
     7
100
AcDbLine
 10
48.49976837880767
 20
851.8749996485132
 30
0.0
 11
34.64789738666597
 21
851.8749996485132
 31
0.0
  0
LINE
  5
28D
330
6A
100
AcDbEntity
  8
0
  6
Continuous
 62
     7
100
AcDbLine
 10
89.45290963655145
 20
862.9749996485132
 30
0.0
 11
85.71135108123502
 21
852.6951514360217
 31
0.0
  0
LINE
  5
28E
330
6A
100
AcDbEntity
  8
0
  6
Continuous
 62
     7
100
AcDbLine
 10
34.64789738666597
 20
851.8749996485132
 30
0.0
 11
34.369275223159
 21
856.0954798130504
 31
0.0
  0
LINE
  5
28F
330
6A
100
AcDbEntity
  8
0
  6
Continuous
 62
     7
100
AcDbLine
 10
49.04882688012807
 20
857.7589539645567
 30
0.0
 11
48.83876659387305
 21
856.9750001485131
 31
0.0
  0
LINE
  5
290
330
6A
100
AcDbEntity
  8
0
  6
Continuous
 62
     7
100
AcDbLine
 10
48.83876659387305
 20
856.9750001485131
 30
0.0
 11
48.29500146372136
 21
856.9750001485131
 31
0.0
  0
LINE
  5
291
330
6A
100
AcDbEntity
  8
0
  6
Continuous
 62
     7
100
AcDbLine
 10
48.29500146372136
 20
856.9750001485131
 30
0.0
 11
48.29500146372136
 21
859.6376308346562
 31
0.0
  0
LINE
  5
292
330
6A
100
AcDbEntity
  8
0
  6
Continuous
 62
     7
100
AcDbLine
 10
47.34500146372135
 20
884.3749996485132
 30
0.0
 11
37.04500146372136
 21
884.375000174024
 31
0.0
  0
LINE
  5
293
330
6A
100
AcDbEntity
  8
0
  6
Continuous
 62
     7
100
AcDbLine
 10
84.10228181763739
 20
857.6249959440931
 30
0.0
 11
84.69500146372137
 21
857.6249971623552
 31
0.0
  0
LINE
  5
294
330
6A
100
AcDbEntity
  8
0
  6
Continuous
 62
     7
100
AcDbLine
 10
81.5950019637223
 20
856.5864469756639
 30
0.0
 11
84.10228181763739
 21
857.6249959440931
 31
0.0
  0
LINE
  5
295
330
6A
100
AcDbEntity
  8
0
  6
Continuous
 62
     7
100
AcDbLine
 10
49.79185996372136
 20
857.5771018293387
 30
0.0
 11
50.84185996372134
 21
857.2651150237575
 31
0.0
  0
LINE
  5
296
330
6A
100
AcDbEntity
  8
0
  6
Continuous
 62
     7
100
AcDbLine
 10
37.04500146372136
 20
884.375000174024
 30
0.0
 11
37.04500146372238
 21
896.4250001485125
 31
0.0
  0
LINE
  5
297
330
6A
100
AcDbEntity
  8
0
  6
Continuous
 62
     7
100
AcDbLine
 10
84.69500146372144
 20
858.8653835857422
 30
0.0
 11
84.69500146372137
 21
857.6249971623552
 31
0.0
  0
LINE
  5
298
330
6A
100
AcDbEntity
  8
0
  6
Continuous
 62
     7
100
AcDbLine
 10
82.2950039637214
 20
858.6868393375443
 30
0.0
 11
81.671317271617
 21
858.5197234823767
 31
0.0
  0
LINE
  5
299
330
6A
100
AcDbEntity
  8
0
  6
Continuous
 62
     7
100
AcDbLine
 10
82.2950039637213
 20
859.6900609755585
 30
0.0
 11
82.2950039637214
 21
858.6868393375443
 31
0.0
  0
LINE
  5
29A
330
6A
100
AcDbEntity
  8
0
  6
Continuous
 62
     7
100
AcDbLine
 10
49.99500146372136
 20
859.0159678639467
 30
0.0
 11
49.99500146372134
 21
857.8417340091963
 31
0.0
  0
LINE
  5
29B
330
6A
100
AcDbEntity
  8
0
  6
Continuous
 62
     7
100
AcDbLine
 10
49.99500146372134
 20
857.8417340091963
 30
0.0
 11
49.04882688012807
 21
857.7589539645567
 31
0.0
  0
LINE
  5
29C
330
6A
100
AcDbEntity
  8
0
  6
Continuous
 62
     7
100
AcDbLine
 10
37.04500146372238
 20
896.4250001485125
 30
0.0
 11
51.65775097042285
 21
896.425000148514
 31
0.0
  0
LINE
  5
29D
330
6A
100
AcDbEntity
  8
0
  6
Continuous
 62
     7
100
AcDbLine
 10
50.78539046372128
 20
864.324944148513
 30
0.0
 11
49.41454746372136
 21
864.324944148513
 31
0.0
  0
LINE
  5
29E
330
6A
100
AcDbEntity
  8
0
  6
Continuous
 62
     7
100
AcDbLine
 10
47.3450014637213
 20
870.8219721485132
 30
0.0
 11
47.34500146372135
 21
884.3749996485132
 31
0.0
  0
LINE
  5
29F
330
6A
100
AcDbEntity
  8
0
  6
Continuous
 62
     7
100
AcDbLine
 10
39.33913744346481
 20
870.821972148513
 30
0.0
 11
47.3450014637213
 21
870.8219721485132
 31
0.0
  0
LINE
  5
2A0
330
6A
100
AcDbEntity
  8
0
  6
Continuous
 62
     7
100
AcDbLine
 10
51.51993839647196
 20
858.6073618260451
 30
0.0
 11
49.99500146372136
 21
859.0159678639467
 31
0.0
  0
LINE
  5
2A1
330
6A
100
AcDbEntity
  8
0
  6
Continuous
 62
     7
100
AcDbLine
 10
53.53879214683651
 20
859.1483122340316
 30
0.0
 11
51.51993839647196
 21
858.6073618260451
 31
0.0
  0
LINE
  5
2A2
330
6A
100
AcDbEntity
  8
0
  6
Continuous
 62
     7
100
AcDbLine
 10
48.29500146372136
 20
859.6376308346562
 30
0.0
 11
51.18663013302569
 21
863.5266041951437
 31
0.0
  0
LINE
  5
2A3
330
6A
100
AcDbEntity
  8
0
  6
Continuous
 62
     7
100
AcDbLine
 10
66.90785446372135
 20
901.1250001485131
 30
0.0
 11
66.90785446372135
 21
899.4579656485131
 31
0.0
  0
LINE
  5
2A4
330
6A
100
AcDbEntity
  8
0
  6
Continuous
 62
     7
100
AcDbLine
 10
69.7295636714113
 20
897.3529651703083
 30
0.0
 11
69.19535446372137
 21
897.3529661485131
 31
0.0
  0
LINE
  5
2A5
330
6A
100
AcDbEntity
  8
0
  6
Continuous
 62
     7
100
AcDbLine
 10
75.52035446372136
 20
897.3529656485131
 30
0.0
 11
74.98614573058528
 21
897.3529656485131
 31
0.0
  0
LINE
  5
2A6
330
6A
100
AcDbEntity
  8
0
  6
Continuous
 62
     7
100
AcDbLine
 10
81.59500196372126
 20
851.8201945725497
 30
0.0
 11
81.5950019637223
 21
856.5864469756639
 31
0.0
  0
LINE
  5
2A7
330
6A
100
AcDbEntity
  8
0
  6
Continuous
 62
     7
100
AcDbLine
 10
81.70761238006638
 20
899.4626094381925
 30
0.0
 11
81.70761238006638
 21
888.7786693536585
 31
0.0
  0
LINE
  5
2A8
330
6A
100
AcDbEntity
  8
0
  6
Continuous
 62
     7
100
AcDbLine
 10
75.9175938102014
 20
899.4573771590013
 30
0.0
 11
81.70761238006638
 21
899.4626094381925
 31
0.0
  0
LINE
  5
2A9
330
6A
100
AcDbEntity
  8
0
  6
Continuous
 62
     7
100
AcDbLine
 10
74.98614573058528
 20
897.3529656485131
 30
0.0
 11
75.9175938102014
 21
899.4573771590013
 31
0.0
  0
LINE
  5
2AA
330
6A
100
AcDbEntity
  8
0
  6
Continuous
 62
     7
100
AcDbLine
 10
75.52035446372136
 20
896.2829661485131
 30
0.0
 11
75.52035446372136
 21
897.3529656485131
 31
0.0
  0
LINE
  5
2AB
330
6A
100
AcDbEntity
  8
0
  6
Continuous
 62
     7
100
AcDbLine
 10
69.19535446372137
 20
897.3529661485131
 30
0.0
 11
69.19535446372137
 21
896.2829661485131
 31
0.0
  0
LINE
  5
2AC
330
6A
100
AcDbEntity
  8
0
  6
Continuous
 62
     7
100
AcDbLine
 10
68.79785453819093
 20
899.4579656485131
 30
0.0
 11
69.7295636714113
 21
897.3529651703083
 31
0.0
  0
LINE
  5
2AD
330
6A
100
AcDbEntity
  8
0
  6
Continuous
 62
     7
100
AcDbLine
 10
66.90785446372135
 20
899.4579656485131
 30
0.0
 11
68.79785453819093
 21
899.4579656485131
 31
0.0
  0
LINE
  5
2AE
330
6A
100
AcDbEntity
  8
0
  6
Continuous
 62
     7
100
AcDbLine
 10
81.671317271617
 20
858.5197234823767
 30
0.0
 11
80.15880759283101
 21
858.9249996485131
 31
0.0
  0
LINE
  5
2AF
330
6A
100
AcDbEntity
  8
0
  6
Continuous
 62
     7
100
AcDbLine
 10
83.69500246372135
 20
858.9046150574377
 30
0.0
 11
83.69500246372135
 21
862.9749996485131
 31
0.0
  0
LINE
  5
2B0
330
6A
100
AcDbEntity
  8
0
  6
Continuous
 62
     7
100
AcDbLine
 10
81.70761238006638
 20
888.7786693536585
 30
0.0
 11
93.90785446372135
 21
888.7786693536585
 31
0.0
  0
LINE
  5
2B1
330
6A
100
AcDbEntity
  8
0
  6
Continuous
 62
     7
100
AcDbLine
 10
51.65775097042285
 20
896.425000148514
 30
0.0
 11
52.95775052468865
 21
901.1250001485131
 31
0.0
  0
LINE
  5
2B2
330
6A
100
AcDbEntity
  8
0
  6
Continuous
 62
     7
100
AcDbLine
 10
80.15880759283101
 20
858.9249996485131
 30
0.0
 11
58.21815496372135
 21
858.9249996485131
 31
0.0
  0
LINE
  5
2B3
330
6A
100
AcDbEntity
  8
0
  6
Continuous
 62
     7
100
AcDbLine
 10
58.21815496372135
 20
858.9249996485131
 30
0.0
 11
58.21815496372135
 21
863.024944190401
 31
0.0
  0
LINE
  5
2B4
330
6A
100
AcDbEntity
  8
0
  6
Continuous
 62
     7
100
AcDbLine
 10
52.95775052468865
 20
901.1250001485131
 30
0.0
 11
66.90785446372135
 21
901.1250001485131
 31
0.0
  0
LINE
  5
2B5
330
6A
100
AcDbEntity
  8
0
  6
Continuous
 62
     7
100
AcDbLine
 10
83.69500246372135
 20
862.9749996485131
 30
0.0
 11
82.2948057527805
 21
862.9749996485131
 31
0.0
  0
LINE
  5
2B6
330
6A
100
AcDbEntity
  8
0
  6
Continuous
 62
     7
100
AcDbLine
 10
81.93642696372135
 20
859.6344491485131
 30
0.0
 11
82.2950039637213
 21
859.6900609755585
 31
0.0
  0
LINE
  5
2B7
330
6A
100
AcDbEntity
  8
0
  6
Continuous
 62
     7
100
AcDbLine
 10
69.19535446372137
 20
896.2829661485131
 30
0.0
 11
75.52035446372136
 21
896.2829661485131
 31
0.0
  0
LINE
  5
2B8
330
6A
100
AcDbEntity
  8
0
  6
Continuous
 62
     7
100
AcDbLine
 10
83.69500246372135
 20
858.9046150574377
 30
0.0
 11
84.69500146372144
 21
858.8653835857422
 31
0.0
  0
LINE
  5
2B9
330
6A
100
AcDbEntity
  8
0
  6
Continuous
 62
     7
100
AcDbLine
 10
56.77617146372141
 20
863.502288148513
 30
0.0
 11
53.53879214683651
 21
859.1483122340316
 31
0.0
  0
LINE
  5
2BA
330
6A
100
AcDbEntity
  8
0
  6
Continuous
 62
     7
100
AcDbLine
 10
93.90785446372135
 20
888.7786693536585
 30
0.0
 11
93.90785446372135
 21
899.4579656485131
 31
0.0
  0
LINE
  5
2BB
330
6A
100
AcDbEntity
  8
0
  6
Continuous
 62
     7
100
AcDbLine
 10
93.90785446372135
 20
899.4579656485131
 30
0.0
 11
97.34785453819075
 21
899.4579656485131
 31
0.0
  0
LINE
  5
2BC
330
6A
100
AcDbEntity
  8
0
  6
Continuous
 62
     7
100
AcDbLine
 10
104.0703549637214
 20
897.3529656485131
 30
0.0
 11
103.5361455464712
 21
897.3529656485131
 31
0.0
  0
LINE
  5
2BD
330
6A
100
AcDbEntity
  8
0
  6
Continuous
 62
     7
100
AcDbLine
 10
103.5361455464712
 20
897.3529656485131
 30
0.0
 11
104.4678543581909
 21
899.4579656485124
 31
0.0
  0
LINE
  5
2BE
330
6A
100
AcDbEntity
  8
0
  6
Continuous
 62
     7
100
AcDbLine
 10
97.74535446372136
 20
897.3529656485131
 30
0.0
 11
97.74535446372136
 21
896.2829661485131
 31
0.0
  0
LINE
  5
2BF
330
6A
100
AcDbEntity
  8
0
  6
Continuous
 62
     7
100
AcDbLine
 10
97.74535446372136
 20
896.2829661485131
 30
0.0
 11
104.0703549637214
 21
896.2829656485131
 31
0.0
  0
LINE
  5
2C0
330
6A
100
AcDbEntity
  8
0
  6
Continuous
 62
     7
100
AcDbLine
 10
104.0703549637214
 20
896.2829656485131
 30
0.0
 11
104.0703549637214
 21
897.3529656485131
 31
0.0
  0
LINE
  5
2C1
330
6A
100
AcDbEntity
  8
0
  6
Continuous
 62
     7
100
AcDbLine
 10
98.27956345974971
 20
897.3529656485131
 30
0.0
 11
97.74535446372136
 21
897.3529656485131
 31
0.0
  0
LINE
  5
2C2
330
6A
100
AcDbEntity
  8
0
  6
Continuous
 62
     7
100
AcDbLine
 10
104.4678543581909
 20
899.4579656485124
 30
0.0
 11
111.600906333071
 21
899.4579656485132
 31
0.0
  0
LINE
  5
2C3
330
6A
100
AcDbEntity
  8
0
  6
Continuous
 62
     7
100
AcDbLine
 10
93.00785446372137
 20
862.9749996485126
 30
0.0
 11
89.45290963655145
 21
862.9749996485132
 31
0.0
  0
LINE
  5
2C4
330
6A
100
AcDbEntity
  8
0
  6
Continuous
 62
     7
100
AcDbLine
 10
97.34785453819075
 20
899.4579656485131
 30
0.0
 11
98.27956345974971
 21
897.3529656485131
 31
0.0
  0
LINE
  5
2C5
330
6A
100
AcDbEntity
  8
0
  6
Continuous
 62
     7
100
AcDbLine
 10
129.0450014637214
 20
861.9060031193015
 30
0.0
 11
93.00785446372137
 21
854.2460713551926
 31
0.0
  0
ARC
  5
2C6
330
6A
100
AcDbEntity
  8
0
  6
Continuous
 62
     7
100
AcDbCircle
 10
138.4988756014404
 20
871.601897648513
 30
0.0
 40
11.99999840578326
100
AcDbArc
 50
141.9825256492411
 51
218.0174743507612
  0
ARC
  5
2C7
330
6A
100
AcDbEntity
  8
0
  6
Continuous
 62
     7
100
AcDbCircle
 10
35.36710321706417
 20
856.161353135262
 30
0.0
 40
1.00000000000002
100
AcDbArc
 50
16.31780539836417
 51
183.7769982958384
  0
ARC
  5
2C8
330
6A
100
AcDbEntity
  8
0
  6
Continuous
 62
     7
100
AcDbCircle
 10
35.36710321706417
 20
856.161353135262
 30
0.0
 40
1.000000000000014
100
AcDbArc
 50
335.6404260404152
 51
16.31780539836417
  0
ARC
  5
2C9
330
6A
100
AcDbEntity
  8
0
  6
Continuous
 62
     7
100
AcDbCircle
 10
37.30660467726933
 20
856.7939374103437
 30
0.0
 40
1.04096672275901
100
AcDbArc
 50
199.7417689741215
 51
341.8044062863458
  0
ARC
  5
2CA
330
6A
100
AcDbEntity
  8
0
  6
Continuous
 62
     7
100
AcDbCircle
 10
41.56568769363157
 20
858.368682848964
 30
0.0
 40
9.499968234491622
100
AcDbArc
 50
316.8784866739571
 51
347.5388259650274
  0
ARC
  5
2CB
330
6A
100
AcDbEntity
  8
0
  6
Continuous
 62
     7
100
AcDbCircle
 10
3.69505115896325
 20
867.8419905041848
 30
0.0
 40
36.42169604082547
100
AcDbArc
 50
340.9271200075122
 51
341.8044050899224
  0
ARC
  5
2CC
330
6A
100
AcDbEntity
  8
0
  6
Continuous
 62
     7
100
AcDbCircle
 10
81.99140260546051
 20
852.4671403170072
 30
0.0
 40
35.00001737392061
100
AcDbArc
 50
160.7790738567201
 51
173.9022801993172
  0
ARC
  5
2CD
330
6A
100
AcDbEntity
  8
0
  6
Continuous
 62
     7
100
AcDbCircle
 10
3.69505115896325
 20
867.8419905041848
 30
0.0
 40
36.42169604082547
100
AcDbArc
 50
341.8104810065532
 51
354.4587090988688
  0
ARC
  5
2CE
330
6A
100
AcDbEntity
  8
0
  6
Continuous
 62
     7
100
AcDbCircle
 10
37.30661533547634
 20
856.7939698340768
 30
0.0
 40
1.040966722759051
100
AcDbArc
 50
341.8025277079009
 51
342.0149909199497
  0
LINE
  5
2CF
330
6A
100
AcDbEntity
  8
0
  6
Continuous
 62
     7
100
AcDbLine
 10
38.29551897141707
 20
856.4688832045226
 30
0.0
 11
38.29672483518878
 21
856.4725524664327
 31
0.0
  0
ARC
  5
2D0
330
6A
100
AcDbEntity
  8
0
  6
Continuous
 62
     7
100
AcDbCircle
 10
50.78539046372128
 20
863.824944148513
 30
0.0
 40
0.4999999999999379
100
AcDbArc
 50
323.3675182816986
 51
90.0
  0
ARC
  5
2D1
330
6A
100
AcDbEntity
  8
0
  6
Continuous
 62
     7
100
AcDbCircle
 10
49.4145474637214
 20
863.824944148513
 30
0.0
 40
0.5
100
AcDbArc
 50
90.00000000000408
 51
160.7790738567125
  0
ARC
  5
2D2
330
6A
100
AcDbEntity
  8
0
  6
Continuous
 62
     7
100
AcDbCircle
 10
57.41815491692393
 20
863.0249441209082
 30
0.0
 40
0.8000000467974177
100
AcDbArc
 50
0.00000497705381
 51
143.367511651397
  0
ARC
  5
2D3
330
6A
100
AcDbEntity
  8
0
  6
Continuous
 62
     7
100
AcDbCircle
 10
81.69122065397275
 20
861.2155794328222
 30
0.0
 40
1.600030971668959
100
AcDbArc
 50
238.1879049879981
 51
278.8153727254867
  0
ARC
  5
2D4
330
6A
100
AcDbEntity
  8
0
  6
Continuous
 62
     7
100
AcDbCircle
 10
78.29501940829434
 20
862.9353885335032
 30
0.0
 40
3.999982480207909
100
AcDbArc
 50
309.6573525843379
 51
0.56739918711458
  0
ENDBLK
  5
6C
330
6A
100
AcDbEntity
  8
0
100
AcDbBlockEnd
  0
BLOCK
  5
6F
330
6D
100
AcDbEntity
  8
0
100
AcDbBlockBegin
  2
Vordans1
 70
     0
 10
81.6932336044315
 20
876.5
 30
0.0
  3
Vordans1
  1

  0
INSERT
  5
6E
330
6D
100
AcDbEntity
  8
0
100
AcDbBlockReference
  2
STN-16-Select__6
 10
34.36710321706417
 20
851.8201945725497
 30
0.0
  0
LINE
  5
2D5
330
6D
100
AcDbEntity
  8
1
  6
DOT_CENTER
 62
     2
100
AcDbLine
 10
67.19500146372107
 20
858.141079693059
 30
0.0
 11
67.19500146372107
 21
860.141079693059
 31
0.0
  0
MTEXT
  5
2D6
330
6D
100
AcDbEntity
  8
1
 62
     6
100
AcDbMText
 10
81.69323360443116
 20
846.875
 30
0.0
 40
5.0
 41
0.0
 71
     2
 72
     1
  1
 
  7
CONVERTER_11
 73
     1
 44
1.32052821128451
  0
DIMENSION
  5
2E1
330
6D
100
AcDbEntity
  8
1
100
AcDbDimension
  2
*D18
 10
84.69500146372137
 20
843.2500128596761
 30
0.0
 11
75.24104614257914
 21
847.175012859676
 31
0.0
 70
    32
  1
<>
 71
     5
 42
-1.0
 53
0.00013888888889
  3
ME10_DIM_11
100
AcDbAlignedDimension
 13
67.19500146372107
 23
858.141079693059
 33
0.0
 14
84.69500146372137
 24
857.6249971623552
 34
0.0
100
AcDbRotatedDimension
  0
DIMENSION
  5
2EC
330
6D
100
AcDbEntity
  8
1
100
AcDbDimension
  2
*D19
 10
67.19500146372107
 20
832.347468440447
 30
0.0
 11
96.99628276730196
 21
836.2724684404469
 31
0.0
 70
    32
  1
<>
 71
     5
 42
-1.0
 53
0.00013888888889
  3
ME10_DIM_12
100
AcDbAlignedDimension
 13
129.0450014637214
 23
861.9060031193015
 33
0.0
 14
67.19500146372107
 24
858.141079693059
 34
0.0
100
AcDbRotatedDimension
  0
DIMENSION
  5
2F7
330
6D
100
AcDbEntity
  8
1
100
AcDbDimension
  2
*D20
 10
34.36927522315899
 20
819.584325089555
 30
0.0
 11
83.60486808924993
 21
823.009325089555
 31
0.0
 70
    32
  1
<>
 71
     5
 42
-1.0
 53
0.00013888888889
  3
ME10_DIM_13
100
AcDbAlignedDimension
 13
129.0450014637214
 23
861.9060031193015
 33
0.0
 14
34.369275223159
 24
856.0954798130504
 34
0.0
100
AcDbRotatedDimension
  0
DIMENSION
  5
302
330
6D
100
AcDbEntity
  8
1
100
AcDbDimension
  2
*D21
 10
29.85172792991465
 20
901.1250001485131
 30
0.0
 11
26.42672792991465
 21
880.411159082211
 31
0.0
 70
    32
  1
<>
 71
     5
 42
-1.0
 53
90.0
  3
ME10_DIM_14
100
AcDbAlignedDimension
 13
58.21815496372135
 23
858.9249996485131
 33
0.0
 14
52.95775052468865
 24
901.1250001485131
 34
0.0
 50
90.0
100
AcDbRotatedDimension
  0
DIMENSION
  5
30D
330
6D
100
AcDbEntity
  8
1
100
AcDbDimension
  2
*D22
 10
19.90746364984851
 20
901.1250001485131
 30
0.0
 11
16.48246364984851
 21
875.376088560659
 31
0.0
 70
    32
  1
<>
 71
     5
 42
-1.0
 53
90.0
  3
ME10_DIM_15
100
AcDbAlignedDimension
 13
48.49976837880767
 23
851.8749996485132
 33
0.0
 14
52.95775052468865
 24
901.1250001485131
 34
0.0
 50
90.0
100
AcDbRotatedDimension
  0
ENDBLK
  5
70
330
6D
100
AcDbEntity
  8
0
100
AcDbBlockEnd
  0
BLOCK
  5
72
330
71
100
AcDbEntity
  8
0
100
AcDbBlockBegin
  2
_rahmen
 70
     0
 10
260.6916876176044
 20
719.9153154261693
 30
0.0
  3
_rahmen
  1

  0
LINE
  5
30E
330
71
100
AcDbEntity
  8
1
  6
Continuous
 62
     6
100
AcDbLine
 10
131.1468830908544
 20
750.4153154261694
 30
0.0
 11
260.691687617606
 21
750.4153154261694
 31
0.0
  0
LINE
  5
30F
330
71
100
AcDbEntity
  8
1
  6
Continuous
 62
     7
100
AcDbLine
 10
149.3468830908544
 20
729.1653154261694
 30
0.0
 11
167.5468830908543
 21
729.1653154261694
 31
0.0
  0
LINE
  5
310
330
71
100
AcDbEntity
  8
1
  6
Continuous
 62
     6
100
AcDbLine
 10
149.3468830908544
 20
724.9153154261694
 30
0.0
 11
131.1468830908544
 21
724.9153154261693
 31
0.0
  0
LINE
  5
311
330
71
100
AcDbEntity
  8
1
  6
Continuous
 62
     7
100
AcDbLine
 10
149.3468830908544
 20
729.1653154261694
 30
0.0
 11
149.3468830908544
 21
724.9153154261694
 31
0.0
  0
LINE
  5
312
330
71
100
AcDbEntity
  8
1
  6
Continuous
 62
     7
100
AcDbLine
 10
167.5468830908543
 20
729.1653154261694
 30
0.0
 11
167.5468830908543
 21
724.9153154261693
 31
0.0
  0
LINE
  5
313
330
71
100
AcDbEntity
  8
1
  6
Continuous
 62
     7
100
AcDbLine
 10
131.1468830908544
 20
729.1653154261693
 30
0.0
 11
131.1468830908544
 21
724.9153154261693
 31
0.0
  0
LINE
  5
314
330
71
100
AcDbEntity
  8
1
  6
Continuous
 62
     7
100
AcDbLine
 10
131.1468830908544
 20
729.1653154261693
 30
0.0
 11
149.3468830908544
 21
729.1653154261694
 31
0.0
  0
LINE
  5
315
330
71
100
AcDbEntity
  8
1
  6
Continuous
 62
     2
100
AcDbLine
 10
140.383537977417
 20
748.5403154261693
 30
0.0
 11
140.383537977417
 21
743.5403154261693
 31
0.0
  0
LINE
  5
316
330
71
100
AcDbEntity
  8
1
  6
Continuous
 62
     2
100
AcDbLine
 10
140.383537977417
 20
743.5403154261693
 30
0.0
 11
135.383537977417
 21
744.7903154261693
 31
0.0
  0
LINE
  5
317
330
71
100
AcDbEntity
  8
1
  6
Continuous
 62
     2
100
AcDbLine
 10
135.383537977417
 20
744.7903154261693
 30
0.0
 11
135.383537977417
 21
747.2903154261693
 31
0.0
  0
LINE
  5
318
330
71
100
AcDbEntity
  8
1
  6
Continuous
 62
     2
100
AcDbLine
 10
135.383537977417
 20
747.2903154261693
 30
0.0
 11
140.383537977417
 21
748.5403154261693
 31
0.0
  0
LINE
  5
319
330
71
100
AcDbEntity
  8
1
  6
Continuous
 62
     6
100
AcDbLine
 10
8.69168761760614
 20
724.9153154261694
 30
0.0
 11
-26.30831238239375
 21
724.9153154261694
 31
0.0
  0
LINE
  5
31A
330
71
100
AcDbEntity
  8
1
  6
Continuous
 62
     6
100
AcDbLine
 10
260.691687617606
 20
741.9153154261694
 30
0.0
 11
260.6916876176057
 21
733.4153154261694
 31
0.0
  0
LINE
  5
31B
330
71
100
AcDbEntity
  8
1
  6
Continuous
 62
     6
100
AcDbLine
 10
167.5468830908543
 20
724.9153154261693
 30
0.0
 11
167.1916876176043
 21
724.9153154261694
 31
0.0
  0
LINE
  5
31C
330
71
100
AcDbEntity
  8
1
  6
Continuous
 62
     6
100
AcDbLine
 10
14.89168761760413
 20
724.9153154261693
 30
0.0
 11
8.69168761760614
 21
724.9153154261694
 31
0.0
  0
LINE
  5
31D
330
71
100
AcDbEntity
  8
1
  6
Continuous
 62
     7
100
AcDbLine
 10
167.5468830908543
 20
741.9153154261694
 30
0.0
 11
167.5468830908543
 21
729.1653154261694
 31
0.0
  0
LINE
  5
31E
330
71
100
AcDbEntity
  8
1
  6
Continuous
 62
     7
100
AcDbLine
 10
131.1468830908544
 20
741.9153154261694
 30
0.0
 11
131.1468830908544
 21
729.1653154261693
 31
0.0
  0
LINE
  5
31F
330
71
100
AcDbEntity
  8
1
  6
Continuous
 62
     6
100
AcDbLine
 10
117.1916876176044
 20
724.9153154261694
 30
0.0
 11
67.19168761760415
 21
724.9153154261694
 31
0.0
  0
LINE
  5
320
330
71
100
AcDbEntity
  8
1
  6
Continuous
 62
     6
100
AcDbLine
 10
14.89168761760413
 20
724.9153154261693
 30
0.0
 11
17.19168761760437
 21
724.9153154261694
 31
0.0
  0
LINE
  5
321
330
71
100
AcDbEntity
  8
1
  6
Continuous
 62
     6
100
AcDbLine
 10
167.5468830908543
 20
724.9153154261693
 30
0.0
 11
217.1916876176043
 21
724.9153154261694
 31
0.0
  0
LINE
  5
322
330
71
100
AcDbEntity
  8
1
  6
Continuous
 62
     6
100
AcDbLine
 10
260.6916876176044
 20
724.9153154261694
 30
0.0
 11
260.6916876176057
 21
733.4153154261694
 31
0.0
  0
LINE
  5
323
330
71
100
AcDbEntity
  8
1
  6
Continuous
 62
     2
100
AcDbLine
 10
-31.30831238239472
 20
724.9153154261694
 30
0.0
 11
-31.30831238239472
 21
719.9153154261693
 31
0.0
  0
LINE
  5
324
330
71
100
AcDbEntity
  8
1
  6
Continuous
 62
     2
100
AcDbLine
 10
-26.30831238239375
 20
724.9153154261694
 30
0.0
 11
-31.30831238239472
 21
724.9153154261694
 31
0.0
  0
LINE
  5
325
330
71
100
AcDbEntity
  8
1
  6
Continuous
 62
     2
100
AcDbLine
 10
-26.30831238239375
 20
719.9153154261693
 30
0.0
 11
17.19168761760437
 21
719.9153154261693
 31
0.0
  0
LINE
  5
326
330
71
100
AcDbEntity
  8
1
  6
Continuous
 62
     2
100
AcDbLine
 10
-26.30831238239375
 20
724.9153154261694
 30
0.0
 11
-26.30831238239375
 21
719.9153154261693
 31
0.0
  0
LINE
  5
327
330
71
100
AcDbEntity
  8
1
  6
Continuous
 62
     2
100
AcDbLine
 10
217.1916876176043
 20
719.9153154261693
 30
0.0
 11
167.1916876176043
 21
719.9153154261693
 31
0.0
  0
LINE
  5
328
330
71
100
AcDbEntity
  8
1
  6
Continuous
 62
     2
100
AcDbLine
 10
217.1916876176043
 20
719.9153154261693
 30
0.0
 11
217.1916876176043
 21
724.9153154261694
 31
0.0
  0
LINE
  5
329
330
71
100
AcDbEntity
  8
1
  6
Continuous
 62
     2
100
AcDbLine
 10
167.1916876176043
 20
719.9153154261693
 30
0.0
 11
167.1916876176043
 21
724.9153154261694
 31
0.0
  0
LINE
  5
32A
330
71
100
AcDbEntity
  8
1
  6
Continuous
 62
     2
100
AcDbLine
 10
117.1916876176044
 20
719.9153154261693
 30
0.0
 11
167.1916876176043
 21
719.9153154261693
 31
0.0
  0
LINE
  5
32B
330
71
100
AcDbEntity
  8
1
  6
Continuous
 62
     2
100
AcDbLine
 10
117.1916876176044
 20
719.9153154261693
 30
0.0
 11
117.1916876176044
 21
724.9153154261694
 31
0.0
  0
LINE
  5
32C
330
71
100
AcDbEntity
  8
1
  6
Continuous
 62
     2
100
AcDbLine
 10
67.19168761760415
 20
719.9153154261693
 30
0.0
 11
117.1916876176044
 21
719.9153154261693
 31
0.0
  0
LINE
  5
32D
330
71
100
AcDbEntity
  8
1
  6
Continuous
 62
     2
100
AcDbLine
 10
67.19168761760415
 20
719.9153154261693
 30
0.0
 11
67.19168761760415
 21
724.9153154261694
 31
0.0
  0
LINE
  5
32E
330
71
100
AcDbEntity
  8
1
  6
Continuous
 62
     2
100
AcDbLine
 10
17.19168761760437
 20
719.9153154261693
 30
0.0
 11
67.19168761760415
 21
719.9153154261693
 31
0.0
  0
LINE
  5
32F
330
71
100
AcDbEntity
  8
1
  6
Continuous
 62
     2
100
AcDbLine
 10
17.19168761760437
 20
719.9153154261693
 30
0.0
 11
17.19168761760437
 21
724.9153154261694
 31
0.0
  0
LINE
  5
330
330
71
100
AcDbEntity
  8
1
  6
Continuous
 62
     6
100
AcDbLine
 10
-26.30831238239392
 20
774.9153154261695
 30
0.0
 11
-26.30831238239375
 21
724.9153154261694
 31
0.0
  0
LINE
  5
331
330
71
100
AcDbEntity
  8
1
  6
Continuous
 62
     2
100
AcDbLine
 10
-31.30831238239472
 20
774.9153154261695
 30
0.0
 11
-31.30831238239472
 21
724.9153154261694
 31
0.0
  0
LINE
  5
332
330
71
100
AcDbEntity
  8
1
  6
Continuous
 62
     2
100
AcDbLine
 10
-31.30831238239472
 20
774.9153154261695
 30
0.0
 11
-26.30831238239392
 21
774.9153154261695
 31
0.0
  0
LINE
  5
333
330
71
100
AcDbEntity
  8
1
  6
Continuous
 62
     6
100
AcDbLine
 10
-26.30831238239415
 20
824.9153154261693
 30
0.0
 11
-26.30831238239392
 21
774.9153154261695
 31
0.0
  0
LINE
  5
334
330
71
100
AcDbEntity
  8
1
  6
Continuous
 62
     2
100
AcDbLine
 10
-31.30831238239472
 20
824.9153154261693
 30
0.0
 11
-31.30831238239472
 21
774.9153154261695
 31
0.0
  0
LINE
  5
335
330
71
100
AcDbEntity
  8
1
  6
Continuous
 62
     2
100
AcDbLine
 10
-31.30831238239472
 20
824.9153154261693
 30
0.0
 11
-26.30831238239415
 21
824.9153154261693
 31
0.0
  0
LINE
  5
336
330
71
100
AcDbEntity
  8
1
  6
Continuous
 62
     6
100
AcDbLine
 10
-26.30831238239466
 20
874.9153154261694
 30
0.0
 11
-26.30831238239415
 21
824.9153154261693
 31
0.0
  0
LINE
  5
337
330
71
100
AcDbEntity
  8
1
  6
Continuous
 62
     2
100
AcDbLine
 10
-31.30831238239472
 20
874.9153154261694
 30
0.0
 11
-31.30831238239472
 21
824.9153154261693
 31
0.0
  0
LINE
  5
338
330
71
100
AcDbEntity
  8
1
  6
Continuous
 62
     2
100
AcDbLine
 10
-31.30831238239472
 20
874.9153154261694
 30
0.0
 11
-26.30831238239466
 21
874.9153154261694
 31
0.0
  0
LINE
  5
339
330
71
100
AcDbEntity
  8
1
  6
Continuous
 62
     6
100
AcDbLine
 10
-26.30831238239472
 20
909.9153154261694
 30
0.0
 11
-26.30831238239466
 21
874.9153154261694
 31
0.0
  0
LINE
  5
33A
330
71
100
AcDbEntity
  8
1
  6
Continuous
 62
     2
100
AcDbLine
 10
-31.30831238239472
 20
929.9153154261694
 30
0.0
 11
-31.30831238239472
 21
874.9153154261694
 31
0.0
  0
LINE
  5
33B
330
71
100
AcDbEntity
  8
1
  6
Continuous
 62
     2
100
AcDbLine
 10
-31.30831238239472
 20
719.9153154261693
 30
0.0
 11
-26.30831238239375
 21
719.9153154261693
 31
0.0
  0
LINE
  5
33C
330
71
100
AcDbEntity
  8
1
  6
Continuous
 62
     2
100
AcDbLine
 10
117.1916876176044
 20
929.9153154261694
 30
0.0
 11
117.1916876176044
 21
920.7066235814681
 31
0.0
  0
LINE
  5
33D
330
71
100
AcDbEntity
  8
1
  6
Continuous
 62
     2
100
AcDbLine
 10
117.1916876176044
 20
929.9153154261694
 30
0.0
 11
-31.30831238239472
 21
929.9153154261694
 31
0.0
  0
LINE
  5
33E
330
71
100
AcDbEntity
  8
1
  6
Continuous
 62
     2
100
AcDbLine
 10
265.6916876176034
 20
724.9153154261694
 30
0.0
 11
265.6916876176034
 21
774.9153154261695
 31
0.0
  0
LINE
  5
33F
330
71
100
AcDbEntity
  8
1
  6
Continuous
 62
     2
100
AcDbLine
 10
265.6916876176034
 20
874.9153154261694
 30
0.0
 11
265.6916876176034
 21
929.9153154261694
 31
0.0
  0
LINE
  5
340
330
71
100
AcDbEntity
  8
1
  6
Continuous
 62
     6
100
AcDbLine
 10
260.6916876176035
 20
874.9153154261694
 30
0.0
 11
260.6916876176034
 21
909.9153154261694
 31
0.0
  0
LINE
  5
341
330
71
100
AcDbEntity
  8
1
  6
Continuous
 62
     2
100
AcDbLine
 10
260.6916876176035
 20
874.9153154261694
 30
0.0
 11
265.6916876176034
 21
874.9153154261694
 31
0.0
  0
LINE
  5
342
330
71
100
AcDbEntity
  8
1
  6
Continuous
 62
     2
100
AcDbLine
 10
265.6916876176034
 20
824.9153154261693
 30
0.0
 11
265.6916876176034
 21
874.9153154261694
 31
0.0
  0
LINE
  5
343
330
71
100
AcDbEntity
  8
1
  6
Continuous
 62
     6
100
AcDbLine
 10
260.6916876176048
 20
824.9153154261693
 30
0.0
 11
260.6916876176035
 21
874.9153154261694
 31
0.0
  0
LINE
  5
344
330
71
100
AcDbEntity
  8
1
  6
Continuous
 62
     2
100
AcDbLine
 10
260.6916876176048
 20
824.9153154261693
 30
0.0
 11
265.6916876176034
 21
824.9153154261693
 31
0.0
  0
LINE
  5
345
330
71
100
AcDbEntity
  8
1
  6
Continuous
 62
     2
100
AcDbLine
 10
265.6916876176034
 20
774.9153154261695
 30
0.0
 11
265.6916876176034
 21
824.9153154261693
 31
0.0
  0
LINE
  5
346
330
71
100
AcDbEntity
  8
1
  6
Continuous
 62
     6
100
AcDbLine
 10
260.6916876176052
 20
774.9153154261695
 30
0.0
 11
260.6916876176048
 21
824.9153154261693
 31
0.0
  0
LINE
  5
347
330
71
100
AcDbEntity
  8
1
  6
Continuous
 62
     2
100
AcDbLine
 10
260.6916876176052
 20
774.9153154261695
 30
0.0
 11
265.6916876176034
 21
774.9153154261695
 31
0.0
  0
LINE
  5
348
330
71
100
AcDbEntity
  8
1
  6
Continuous
 62
     6
100
AcDbLine
 10
260.6916876176034
 20
909.9153154261694
 30
0.0
 11
-26.30831238239472
 21
909.9153154261694
 31
0.0
  0
LINE
  5
349
330
71
100
AcDbEntity
  8
1
  6
Continuous
 62
     2
100
AcDbLine
 10
265.6916876176034
 20
929.9153154261694
 30
0.0
 11
117.1916876176044
 21
929.9153154261694
 31
0.0
  0
LINE
  5
34A
330
71
100
AcDbEntity
  8
1
  6
Continuous
 62
     6
100
AcDbLine
 10
260.691687617606
 20
741.9153154261694
 30
0.0
 11
260.6916876176052
 21
774.9153154261695
 31
0.0
  0
LINE
  5
34B
330
71
100
AcDbEntity
  8
1
  6
Continuous
 62
     2
100
AcDbLine
 10
260.6916876176044
 20
719.9153154261693
 30
0.0
 11
217.1916876176043
 21
719.9153154261693
 31
0.0
  0
LINE
  5
34C
330
71
100
AcDbEntity
  8
1
  6
Continuous
 62
     2
100
AcDbLine
 10
265.6916876176034
 20
719.9153154261693
 30
0.0
 11
260.6916876176044
 21
719.9153154261693
 31
0.0
  0
LINE
  5
34D
330
71
100
AcDbEntity
  8
1
  6
Continuous
 62
     2
100
AcDbLine
 10
265.6916876176034
 20
719.9153154261693
 30
0.0
 11
265.6916876176034
 21
724.9153154261694
 31
0.0
  0
LINE
  5
34E
330
71
100
AcDbEntity
  8
1
  6
Continuous
 62
     6
100
AcDbLine
 10
131.1468830908544
 20
741.9153154261694
 30
0.0
 11
167.5468830908543
 21
741.9153154261694
 31
0.0
  0
LINE
  5
34F
330
71
100
AcDbEntity
  8
1
  6
Continuous
 62
     2
100
AcDbLine
 10
260.6916876176044
 20
724.9153154261694
 30
0.0
 11
260.6916876176044
 21
719.9153154261693
 31
0.0
  0
LINE
  5
350
330
71
100
AcDbEntity
  8
1
  6
Continuous
 62
     2
100
AcDbLine
 10
260.6916876176044
 20
724.9153154261694
 30
0.0
 11
265.6916876176034
 21
724.9153154261694
 31
0.0
  0
LINE
  5
351
330
71
100
AcDbEntity
  8
1
  6
Continuous
 62
     6
100
AcDbLine
 10
167.1916876176043
 20
724.9153154261694
 30
0.0
 11
149.3468830908544
 21
724.9153154261694
 31
0.0
  0
LINE
  5
352
330
71
100
AcDbEntity
  8
1
  6
Continuous
 62
     6
100
AcDbLine
 10
217.1916876176043
 20
724.9153154261694
 30
0.0
 11
260.6916876176044
 21
724.9153154261694
 31
0.0
  0
LINE
  5
353
330
71
100
AcDbEntity
  8
1
  6
Continuous
 62
     6
100
AcDbLine
 10
67.19168761760415
 20
724.9153154261694
 30
0.0
 11
62.14688309085437
 21
724.9153154261694
 31
0.0
  0
LINE
  5
354
330
71
100
AcDbEntity
  8
1
  6
Continuous
 62
     6
100
AcDbLine
 10
117.1916876176044
 20
724.9153154261694
 30
0.0
 11
131.1468830908544
 21
724.9153154261693
 31
0.0
  0
LINE
  5
355
102
{ACAD_REACTORS
330
43F
330
440
102
}
330
71
100
AcDbEntity
  8
0
  6
Continuous
 62
     2
100
AcDbLine
 10
138.6615090330012
 20
736.9878301823815
 30
0.0
 11
138.6615090330012
 21
737.5933654708883
 31
0.0
  0
LINE
  5
356
102
{ACAD_REACTORS
330
43F
330
440
102
}
330
71
100
AcDbEntity
  8
0
  6
Continuous
 62
     2
100
AcDbLine
 10
138.6615090330012
 20
734.1876955757502
 30
0.0
 11
138.6615090330012
 21
734.7695469824453
 31
0.0
  0
LINE
  5
357
102
{ACAD_REACTORS
330
441
330
442
102
}
330
71
100
AcDbEntity
  8
0
  6
Continuous
 62
     2
100
AcDbLine
 10
161.2909954684804
 20
734.4773596438732
 30
0.0
 11
161.2909954684804
 21
732.2088154261858
 31
0.0
  0
LINE
  5
358
102
{ACAD_REACTORS
330
441
330
442
102
}
330
71
100
AcDbEntity
  8
0
  6
Continuous
 62
     2
100
AcDbLine
 10
159.9099416894928
 20
735.2626249499963
 30
0.0
 11
163.2948872081215
 21
735.2626249499967
 31
0.0
  0
LINE
  5
359
102
{ACAD_REACTORS
330
441
330
442
102
}
330
71
100
AcDbEntity
  8
0
  6
Continuous
 62
     2
100
AcDbLine
 10
163.2948872081215
 20
734.4773596438732
 30
0.0
 11
163.2948872081215
 21
735.2626249499967
 31
0.0
  0
LINE
  5
35A
102
{ACAD_REACTORS
330
441
330
442
102
}
330
71
100
AcDbEntity
  8
0
  6
Continuous
 62
     2
100
AcDbLine
 10
162.4837881706481
 20
734.4773596438732
 30
0.0
 11
163.2948872081215
 21
734.4773596438732
 31
0.0
  0
LINE
  5
35B
102
{ACAD_REACTORS
330
441
330
442
102
}
330
71
100
AcDbEntity
  8
0
  6
Continuous
 62
     2
100
AcDbLine
 10
162.4837881706481
 20
732.2088154261858
 30
0.0
 11
162.4837881706481
 21
734.4773596438732
 31
0.0
  0
LINE
  5
35C
102
{ACAD_REACTORS
330
441
330
442
102
}
330
71
100
AcDbEntity
  8
0
  6
Continuous
 62
     2
100
AcDbLine
 10
161.2909954684804
 20
732.2088154261858
 30
0.0
 11
162.4837881706481
 21
732.2088154261858
 31
0.0
  0
LINE
  5
35D
102
{ACAD_REACTORS
330
437
330
438
102
}
330
71
100
AcDbEntity
  8
0
  6
Continuous
 62
     2
100
AcDbLine
 10
160.5944045304159
 20
738.6218154261712
 30
0.0
 11
159.1916803126666
 21
738.6218154261712
 31
0.0
  0
LINE
  5
35E
102
{ACAD_REACTORS
330
437
330
438
102
}
330
71
100
AcDbEntity
  8
0
  6
Continuous
 62
     2
100
AcDbLine
 10
160.5944045304159
 20
738.6218154261712
 30
0.0
 11
161.1955720523077
 21
737.9419921046157
 31
0.0
  0
LINE
  5
35F
102
{ACAD_REACTORS
330
437
330
438
102
}
330
71
100
AcDbEntity
  8
0
  6
Continuous
 62
     2
100
AcDbLine
 10
161.1955720523077
 20
737.9419921046157
 30
0.0
 11
161.7967395742004
 21
738.6218154261712
 31
0.0
  0
LINE
  5
360
102
{ACAD_REACTORS
330
437
330
438
102
}
330
71
100
AcDbEntity
  8
0
  6
Continuous
 62
     2
100
AcDbLine
 10
161.8969341611812
 20
737.148864896135
 30
0.0
 11
163.1994637919477
 21
738.6218154261712
 31
0.0
  0
LINE
  5
361
102
{ACAD_REACTORS
330
437
330
438
102
}
330
71
100
AcDbEntity
  8
0
  6
Continuous
 62
     2
100
AcDbLine
 10
161.8969341611812
 20
737.148864896135
 30
0.0
 11
163.2948872081215
 21
735.56800590236
 31
0.0
  0
LINE
  5
362
102
{ACAD_REACTORS
330
437
330
438
102
}
330
71
100
AcDbEntity
  8
0
  6
Continuous
 62
     2
100
AcDbLine
 10
161.8921629903732
 20
735.56800590236
 30
0.0
 11
163.2948872081215
 21
735.56800590236
 31
0.0
  0
LINE
  5
363
102
{ACAD_REACTORS
330
437
330
438
102
}
330
71
100
AcDbEntity
  8
0
  6
Continuous
 62
     2
100
AcDbLine
 10
161.1955720523077
 20
736.3557376876537
 30
0.0
 11
161.8921629903732
 21
735.56800590236
 31
0.0
  0
LINE
  5
364
102
{ACAD_REACTORS
330
435
330
436
102
}
330
71
100
AcDbEntity
  8
0
  6
Continuous
 62
     2
100
AcDbLine
 10
157.736473216024
 20
738.6218154261712
 30
0.0
 11
158.9769776262769
 21
738.6218154261712
 31
0.0
  0
LINE
  5
365
102
{ACAD_REACTORS
330
435
330
436
102
}
330
71
100
AcDbEntity
  8
0
  6
Continuous
 62
     2
100
AcDbLine
 10
158.9769776262769
 20
738.6218154261712
 30
0.0
 11
158.9769776262769
 21
735.56800590236
 31
0.0
  0
LINE
  5
366
102
{ACAD_REACTORS
330
435
330
436
102
}
330
71
100
AcDbEntity
  8
0
  6
Continuous
 62
     2
100
AcDbLine
 10
157.736473216024
 20
735.56800590236
 30
0.0
 11
157.736473216024
 21
738.6218154261712
 31
0.0
  0
LINE
  5
367
102
{ACAD_REACTORS
330
433
330
434
102
}
330
71
100
AcDbEntity
  8
0
  6
Continuous
 62
     2
100
AcDbLine
 10
156.2681631334864
 20
733.4303392357102
 30
0.0
 11
156.5683283706788
 21
734.1981542016969
 31
0.0
  0
LINE
  5
368
102
{ACAD_REACTORS
330
433
330
434
102
}
330
71
100
AcDbEntity
  8
0
  6
Continuous
 62
     2
100
AcDbLine
 10
155.7906275288655
 20
732.2088154261858
 30
0.0
 11
156.0021075823414
 21
732.7497759704036
 31
0.0
  0
LINE
  5
369
102
{ACAD_REACTORS
330
433
330
434
102
}
330
71
100
AcDbEntity
  8
0
  6
Continuous
 62
     2
100
AcDbLine
 10
155.9480761655519
 20
735.2626249499967
 30
0.0
 11
154.5501231186126
 21
732.2088154261858
 31
0.0
  0
LINE
  5
36A
102
{ACAD_REACTORS
330
433
330
434
102
}
330
71
100
AcDbEntity
  8
0
  6
Continuous
 62
     2
100
AcDbLine
 10
158.5865336227449
 20
732.2088154261858
 30
0.0
 11
157.346029212491
 21
732.2088154261858
 31
0.0
  0
LINE
  5
36B
102
{ACAD_REACTORS
330
433
330
434
102
}
330
71
100
AcDbEntity
  8
0
  6
Continuous
 62
     2
100
AcDbLine
 10
156.0021075823414
 20
732.7497759704036
 30
0.0
 11
157.1345491590152
 21
732.7497759704036
 31
0.0
  0
LINE
  5
36C
102
{ACAD_REACTORS
330
431
330
432
102
}
330
71
100
AcDbEntity
  8
0
  6
Continuous
 62
     2
100
AcDbLine
 10
152.3926109794303
 20
734.4773596438732
 30
0.0
 11
153.203710016905
 21
734.4773596438732
 31
0.0
  0
LINE
  5
36D
102
{ACAD_REACTORS
330
431
330
432
102
}
330
71
100
AcDbEntity
  8
0
  6
Continuous
 62
     2
100
AcDbLine
 10
155.207601756544
 20
735.2626249499967
 30
0.0
 11
152.3926109794303
 21
735.2626249499967
 31
0.0
  0
LINE
  5
36E
102
{ACAD_REACTORS
330
431
330
432
102
}
330
71
100
AcDbEntity
  8
0
  6
Continuous
 62
     2
100
AcDbLine
 10
155.207601756544
 20
734.4773596438732
 30
0.0
 11
155.207601756544
 21
735.2626249499967
 31
0.0
  0
LINE
  5
36F
102
{ACAD_REACTORS
330
431
330
432
102
}
330
71
100
AcDbEntity
  8
0
  6
Continuous
 62
     2
100
AcDbLine
 10
154.3965027190715
 20
734.4773596438732
 30
0.0
 11
155.207601756544
 21
734.4773596438732
 31
0.0
  0
LINE
  5
370
102
{ACAD_REACTORS
330
431
330
432
102
}
330
71
100
AcDbEntity
  8
0
  6
Continuous
 62
     2
100
AcDbLine
 10
154.3965027190715
 20
732.2088154261858
 30
0.0
 11
154.3965027190715
 21
734.4773596438732
 31
0.0
  0
LINE
  5
371
102
{ACAD_REACTORS
330
42F
330
430
102
}
330
71
100
AcDbEntity
  8
0
  6
Continuous
 62
     2
100
AcDbLine
 10
155.0646175631695
 20
735.56800590236
 30
0.0
 11
155.0646175631695
 21
736.8767814125647
 31
0.0
  0
LINE
  5
372
102
{ACAD_REACTORS
330
42F
330
430
102
}
330
71
100
AcDbEntity
  8
0
  6
Continuous
 62
     2
100
AcDbLine
 10
153.871824861003
 20
738.6218154261712
 30
0.0
 11
153.871824861003
 21
735.56800590236
 31
0.0
  0
LINE
  5
373
102
{ACAD_REACTORS
330
42F
330
430
102
}
330
71
100
AcDbEntity
  8
0
  6
Continuous
 62
     2
100
AcDbLine
 10
155.0646175631695
 20
738.6218154261712
 30
0.0
 11
153.871824861003
 21
738.6218154261712
 31
0.0
  0
LINE
  5
374
102
{ACAD_REACTORS
330
42F
330
430
102
}
330
71
100
AcDbEntity
  8
0
  6
Continuous
 62
     2
100
AcDbLine
 10
156.3051219734235
 20
738.6218154261712
 30
0.0
 11
156.3051219734235
 21
737.313039915966
 31
0.0
  0
LINE
  5
375
102
{ACAD_REACTORS
330
42D
330
42E
102
}
330
71
100
AcDbEntity
  8
0
  6
Continuous
 62
     2
100
AcDbLine
 10
148.6233860405833
 20
735.2626249499967
 30
0.0
 11
148.6233860405833
 21
732.2088154261858
 31
0.0
  0
LINE
  5
376
102
{ACAD_REACTORS
330
42D
330
42E
102
}
330
71
100
AcDbEntity
  8
0
  6
Continuous
 62
     2
100
AcDbLine
 10
149.8161787427509
 20
735.2626249499967
 30
0.0
 11
148.6233860405833
 21
735.2626249499967
 31
0.0
  0
LINE
  5
377
102
{ACAD_REACTORS
330
42D
330
42E
102
}
330
71
100
AcDbEntity
  8
0
  6
Continuous
 62
     2
100
AcDbLine
 10
151.0566831530038
 20
732.2088154261858
 30
0.0
 11
152.2494758551702
 21
732.2088154261858
 31
0.0
  0
LINE
  5
378
102
{ACAD_REACTORS
330
42D
330
42E
102
}
330
71
100
AcDbEntity
  8
0
  6
Continuous
 62
     2
100
AcDbLine
 10
148.6233860405833
 20
732.2088154261858
 30
0.0
 11
149.8161787427509
 21
732.2088154261858
 31
0.0
  0
LINE
  5
379
102
{ACAD_REACTORS
330
43D
330
43E
102
}
330
71
100
AcDbEntity
  8
0
  6
Continuous
 62
     2
100
AcDbLine
 10
152.2973384941424
 20
737.4439174669865
 30
0.0
 11
152.2973384941424
 21
737.9238018207282
 31
0.0
  0
LINE
  5
37A
102
{ACAD_REACTORS
330
43D
330
43E
102
}
330
71
100
AcDbEntity
  8
0
  6
Continuous
 62
     2
100
AcDbLine
 10
153.63326632057
 20
737.4439174669865
 30
0.0
 11
152.2973384941424
 21
737.4439174669865
 31
0.0
  0
LINE
  5
37B
102
{ACAD_REACTORS
330
43D
330
43E
102
}
330
71
100
AcDbEntity
  8
0
  6
Continuous
 62
     2
100
AcDbLine
 10
153.63326632057
 20
736.7459038615442
 30
0.0
 11
153.63326632057
 21
737.4439174669865
 31
0.0
  0
LINE
  5
37C
102
{ACAD_REACTORS
330
43D
330
43E
102
}
330
71
100
AcDbEntity
  8
0
  6
Continuous
 62
     2
100
AcDbLine
 10
152.2973384941424
 20
736.7459038615442
 30
0.0
 11
153.63326632057
 21
736.7459038615442
 31
0.0
  0
LINE
  5
37D
102
{ACAD_REACTORS
330
42B
330
42C
102
}
330
71
100
AcDbEntity
  8
0
  6
Continuous
 62
     2
100
AcDbLine
 10
148.8143838038155
 20
738.6218154261712
 30
0.0
 11
148.8143838038155
 21
735.56800590236
 31
0.0
  0
LINE
  5
37E
102
{ACAD_REACTORS
330
42B
330
42C
102
}
330
71
100
AcDbEntity
  8
0
  6
Continuous
 62
     2
100
AcDbLine
 10
148.8143838038155
 20
735.56800590236
 30
0.0
 11
147.6215911016491
 21
735.56800590236
 31
0.0
  0
LINE
  5
37F
102
{ACAD_REACTORS
330
42B
330
42C
102
}
330
71
100
AcDbEntity
  8
0
  6
Continuous
 62
     2
100
AcDbLine
 10
147.6215911016491
 20
735.56800590236
 30
0.0
 11
147.6215911016491
 21
736.7022780112038
 31
0.0
  0
LINE
  5
380
102
{ACAD_REACTORS
330
42B
330
42C
102
}
330
71
100
AcDbEntity
  8
0
  6
Continuous
 62
     2
100
AcDbLine
 10
146.5719335237416
 20
735.56800590236
 30
0.0
 11
145.379140821575
 21
735.56800590236
 31
0.0
  0
LINE
  5
381
102
{ACAD_REACTORS
330
42B
330
42C
102
}
330
71
100
AcDbEntity
  8
0
  6
Continuous
 62
     2
100
AcDbLine
 10
145.379140821575
 20
738.6218154261712
 30
0.0
 11
146.5719335237416
 21
738.6218154261712
 31
0.0
  0
LINE
  5
382
102
{ACAD_REACTORS
330
42B
330
42C
102
}
330
71
100
AcDbEntity
  8
0
  6
Continuous
 62
     2
100
AcDbLine
 10
146.5719335237416
 20
738.6218154261712
 30
0.0
 11
146.5719335237416
 21
737.5529820928366
 31
0.0
  0
LINE
  5
383
102
{ACAD_REACTORS
330
42B
330
42C
102
}
330
71
100
AcDbEntity
  8
0
  6
Continuous
 62
     2
100
AcDbLine
 10
146.5719335237416
 20
737.5529820928366
 30
0.0
 11
147.6215911016491
 21
737.5529820928366
 31
0.0
  0
LINE
  5
384
102
{ACAD_REACTORS
330
439
330
43A
102
}
330
71
100
AcDbEntity
  8
0
  6
Continuous
 62
     2
100
AcDbLine
 10
143.4229607900214
 20
737.9587095807311
 30
0.0
 11
143.7402558515633
 21
737.9587095807311
 31
0.0
  0
LINE
  5
385
102
{ACAD_REACTORS
330
439
330
43A
102
}
330
71
100
AcDbEntity
  8
0
  6
Continuous
 62
     2
100
AcDbLine
 10
143.4229607900214
 20
737.2529819313888
 30
0.0
 11
143.7402558515633
 21
737.2529819313888
 31
0.0
  0
LINE
  5
386
102
{ACAD_REACTORS
330
439
330
43A
102
}
330
71
100
AcDbEntity
  8
0
  6
Continuous
 62
     2
100
AcDbLine
 10
142.1824563797673
 20
738.6218154261712
 30
0.0
 11
142.1824563797673
 21
735.56800590236
 31
0.0
  0
LINE
  5
387
102
{ACAD_REACTORS
330
439
330
43A
102
}
330
71
100
AcDbEntity
  8
0
  6
Continuous
 62
     2
100
AcDbLine
 10
142.1824563797673
 20
738.6218154261712
 30
0.0
 11
144.1817283778017
 21
738.6218154261712
 31
0.0
  0
LINE
  5
388
102
{ACAD_REACTORS
330
439
330
43A
102
}
330
71
100
AcDbEntity
  8
0
  6
Continuous
 62
     2
100
AcDbLine
 10
143.4229607900214
 20
736.5110841435038
 30
0.0
 11
144.1817283778017
 21
736.5110841435038
 31
0.0
  0
LINE
  5
389
102
{ACAD_REACTORS
330
43F
330
440
102
}
330
71
100
AcDbEntity
  8
0
  6
Continuous
 62
     2
100
AcDbLine
 10
136.0859603464706
 20
737.5935429475364
 30
0.0
 11
136.0859603464706
 21
733.2370879048193
 31
0.0
  0
LINE
  5
38A
102
{ACAD_REACTORS
330
43F
330
440
102
}
330
71
100
AcDbEntity
  8
0
  6
Continuous
 62
     2
100
AcDbLine
 10
136.4016772695462
 20
737.9092598706126
 30
0.0
 11
137.8775105305559
 21
737.9092598706126
 31
0.0
  0
LINE
  5
38B
102
{ACAD_REACTORS
330
43F
330
440
102
}
330
71
100
AcDbEntity
  8
0
  6
Continuous
 62
     2
100
AcDbLine
 10
138.1932274536325
 20
736.9895183284759
 30
0.0
 11
138.1932274536325
 21
737.5935429475364
 31
0.0
  0
LINE
  5
38C
102
{ACAD_REACTORS
330
43F
330
440
102
}
330
71
100
AcDbEntity
  8
0
  6
Continuous
 62
     2
100
AcDbLine
 10
138.1932274536325
 20
733.2370879048193
 30
0.0
 11
138.1932274536325
 21
734.7678588363509
 31
0.0
  0
LINE
  5
38D
102
{ACAD_REACTORS
330
43F
330
440
102
}
330
71
100
AcDbEntity
  8
0
  6
Continuous
 62
     2
100
AcDbLine
 10
141.2810946835166
 20
732.2088154261858
 30
0.0
 11
135.8077825927998
 21
732.2088154261858
 31
0.0
  0
LINE
  5
38E
102
{ACAD_REACTORS
330
43F
330
440
102
}
330
71
100
AcDbEntity
  8
0
  6
Continuous
 62
     2
100
AcDbLine
 10
141.7053392989004
 20
738.1975708107692
 30
0.0
 11
141.7053392989004
 21
732.633060041569
 31
0.0
  0
LINE
  5
38F
102
{ACAD_REACTORS
330
43F
330
440
102
}
330
71
100
AcDbEntity
  8
0
  6
Continuous
 62
     2
100
AcDbLine
 10
135.8077825927998
 20
738.621815426153
 30
0.0
 11
141.2810946835166
 21
738.621815426153
 31
0.0
  0
LINE
  5
390
102
{ACAD_REACTORS
330
43F
330
440
102
}
330
71
100
AcDbEntity
  8
0
  6
Continuous
 62
     2
100
AcDbLine
 10
135.383537977417
 20
738.1975708107692
 30
0.0
 11
135.383537977417
 21
732.633060041569
 31
0.0
  0
LINE
  5
391
102
{ACAD_REACTORS
330
43F
330
440
102
}
330
71
100
AcDbEntity
  8
0
  6
Continuous
 62
     2
100
AcDbLine
 10
137.8775105305559
 20
732.9213709817426
 30
0.0
 11
136.4016772695462
 21
732.9213709817426
 31
0.0
  0
LINE
  5
392
102
{ACAD_REACTORS
330
439
330
43A
102
}
330
71
100
AcDbEntity
  8
0
  6
Continuous
 62
     2
100
AcDbLine
 10
143.4229607900214
 20
735.56800590236
 30
0.0
 11
143.4229607900214
 21
736.5110841435038
 31
0.0
  0
LINE
  5
393
102
{ACAD_REACTORS
330
439
330
43A
102
}
330
71
100
AcDbEntity
  8
0
  6
Continuous
 62
     2
100
AcDbLine
 10
142.1824563797673
 20
735.56800590236
 30
0.0
 11
143.4229607900214
 21
735.56800590236
 31
0.0
  0
LINE
  5
394
102
{ACAD_REACTORS
330
439
330
43A
102
}
330
71
100
AcDbEntity
  8
0
  6
Continuous
 62
     2
100
AcDbLine
 10
143.4229607900214
 20
737.2529819313888
 30
0.0
 11
143.4229607900214
 21
737.9587095807311
 31
0.0
  0
LINE
  5
395
102
{ACAD_REACTORS
330
42B
330
42C
102
}
330
71
100
AcDbEntity
  8
0
  6
Continuous
 62
     2
100
AcDbLine
 10
145.379140821575
 20
738.6218154261712
 30
0.0
 11
145.379140821575
 21
735.56800590236
 31
0.0
  0
LINE
  5
396
102
{ACAD_REACTORS
330
42B
330
42C
102
}
330
71
100
AcDbEntity
  8
0
  6
Continuous
 62
     2
100
AcDbLine
 10
146.5719335237416
 20
736.7022780112038
 30
0.0
 11
146.5719335237416
 21
735.56800590236
 31
0.0
  0
LINE
  5
397
102
{ACAD_REACTORS
330
42B
330
42C
102
}
330
71
100
AcDbEntity
  8
0
  6
Continuous
 62
     2
100
AcDbLine
 10
147.6215911016491
 20
736.7022780112038
 30
0.0
 11
146.5719335237416
 21
736.7022780112038
 31
0.0
  0
LINE
  5
398
102
{ACAD_REACTORS
330
42B
330
42C
102
}
330
71
100
AcDbEntity
  8
0
  6
Continuous
 62
     2
100
AcDbLine
 10
147.6215911016491
 20
738.6218154261712
 30
0.0
 11
148.8143838038155
 21
738.6218154261712
 31
0.0
  0
LINE
  5
399
102
{ACAD_REACTORS
330
42B
330
42C
102
}
330
71
100
AcDbEntity
  8
0
  6
Continuous
 62
     2
100
AcDbLine
 10
147.6215911016491
 20
737.5529820928366
 30
0.0
 11
147.6215911016491
 21
738.6218154261712
 31
0.0
  0
LINE
  5
39A
102
{ACAD_REACTORS
330
43D
330
43E
102
}
330
71
100
AcDbEntity
  8
0
  6
Continuous
 62
     2
100
AcDbLine
 10
153.63326632057
 20
737.9238018207282
 30
0.0
 11
153.63326632057
 21
738.6218154261712
 31
0.0
  0
LINE
  5
39B
102
{ACAD_REACTORS
330
43D
330
43E
102
}
330
71
100
AcDbEntity
  8
0
  6
Continuous
 62
     2
100
AcDbLine
 10
150.4829465967891
 20
738.6218154261712
 30
0.0
 11
153.63326632057
 21
738.6218154261712
 31
0.0
  0
LINE
  5
39C
102
{ACAD_REACTORS
330
43D
330
43E
102
}
330
71
100
AcDbEntity
  8
0
  6
Continuous
 62
     2
100
AcDbLine
 10
150.4829465967891
 20
735.56800590236
 30
0.0
 11
153.63326632057
 21
735.56800590236
 31
0.0
  0
LINE
  5
39D
102
{ACAD_REACTORS
330
43D
330
43E
102
}
330
71
100
AcDbEntity
  8
0
  6
Continuous
 62
     2
100
AcDbLine
 10
153.63326632057
 20
735.56800590236
 30
0.0
 11
153.63326632057
 21
736.2660195078025
 31
0.0
  0
LINE
  5
39E
102
{ACAD_REACTORS
330
43D
330
43E
102
}
330
71
100
AcDbEntity
  8
0
  6
Continuous
 62
     2
100
AcDbLine
 10
153.63326632057
 20
736.2660195078025
 30
0.0
 11
152.2973384941424
 21
736.2660195078025
 31
0.0
  0
LINE
  5
39F
102
{ACAD_REACTORS
330
43D
330
43E
102
}
330
71
100
AcDbEntity
  8
0
  6
Continuous
 62
     2
100
AcDbLine
 10
152.2973384941424
 20
736.2660195078025
 30
0.0
 11
152.2973384941424
 21
736.7459038615442
 31
0.0
  0
LINE
  5
3A0
102
{ACAD_REACTORS
330
43D
330
43E
102
}
330
71
100
AcDbEntity
  8
0
  6
Continuous
 62
     2
100
AcDbLine
 10
152.2973384941424
 20
737.9238018207282
 30
0.0
 11
153.63326632057
 21
737.9238018207282
 31
0.0
  0
LINE
  5
3A1
102
{ACAD_REACTORS
330
42D
330
42E
102
}
330
71
100
AcDbEntity
  8
0
  6
Continuous
 62
     2
100
AcDbLine
 10
149.8161787427509
 20
732.2088154261858
 30
0.0
 11
149.8161787427509
 21
733.5175909363903
 31
0.0
  0
LINE
  5
3A2
102
{ACAD_REACTORS
330
42D
330
42E
102
}
330
71
100
AcDbEntity
  8
0
  6
Continuous
 62
     2
100
AcDbLine
 10
149.8161787427509
 20
733.5175909363903
 30
0.0
 11
151.0566831530038
 21
732.2088154261858
 31
0.0
  0
LINE
  5
3A3
102
{ACAD_REACTORS
330
42D
330
42E
102
}
330
71
100
AcDbEntity
  8
0
  6
Continuous
 62
     2
100
AcDbLine
 10
152.2494758551702
 20
732.2088154261858
 30
0.0
 11
152.2494758551702
 21
735.2626249499967
 31
0.0
  0
LINE
  5
3A4
102
{ACAD_REACTORS
330
42D
330
42E
102
}
330
71
100
AcDbEntity
  8
0
  6
Continuous
 62
     2
100
AcDbLine
 10
152.2494758551702
 20
735.2626249499967
 30
0.0
 11
151.0566831530038
 21
735.2626249499967
 31
0.0
  0
LINE
  5
3A5
102
{ACAD_REACTORS
330
42D
330
42E
102
}
330
71
100
AcDbEntity
  8
0
  6
Continuous
 62
     2
100
AcDbLine
 10
151.0566831530038
 20
735.2626249499967
 30
0.0
 11
151.0566831530038
 21
733.9538494397917
 31
0.0
  0
LINE
  5
3A6
102
{ACAD_REACTORS
330
42D
330
42E
102
}
330
71
100
AcDbEntity
  8
0
  6
Continuous
 62
     2
100
AcDbLine
 10
151.0566831530038
 20
733.9538494397917
 30
0.0
 11
149.8161787427509
 21
735.2626249499967
 31
0.0
  0
LINE
  5
3A7
102
{ACAD_REACTORS
330
42F
330
430
102
}
330
71
100
AcDbEntity
  8
0
  6
Continuous
 62
     2
100
AcDbLine
 10
155.0646175631695
 20
736.8767814125647
 30
0.0
 11
156.3051219734235
 21
735.56800590236
 31
0.0
  0
LINE
  5
3A8
102
{ACAD_REACTORS
330
42F
330
430
102
}
330
71
100
AcDbEntity
  8
0
  6
Continuous
 62
     2
100
AcDbLine
 10
156.3051219734235
 20
735.56800590236
 30
0.0
 11
157.4979146755901
 21
735.56800590236
 31
0.0
  0
LINE
  5
3A9
102
{ACAD_REACTORS
330
42F
330
430
102
}
330
71
100
AcDbEntity
  8
0
  6
Continuous
 62
     2
100
AcDbLine
 10
157.4979146755901
 20
735.56800590236
 30
0.0
 11
157.4979146755901
 21
738.6218154261712
 31
0.0
  0
LINE
  5
3AA
102
{ACAD_REACTORS
330
42F
330
430
102
}
330
71
100
AcDbEntity
  8
0
  6
Continuous
 62
     2
100
AcDbLine
 10
157.4979146755901
 20
738.6218154261712
 30
0.0
 11
156.3051219734235
 21
738.6218154261712
 31
0.0
  0
LINE
  5
3AB
102
{ACAD_REACTORS
330
42F
330
430
102
}
330
71
100
AcDbEntity
  8
0
  6
Continuous
 62
     2
100
AcDbLine
 10
156.3051219734235
 20
737.313039915966
 30
0.0
 11
155.0646175631695
 21
738.6218154261712
 31
0.0
  0
LINE
  5
3AC
102
{ACAD_REACTORS
330
42F
330
430
102
}
330
71
100
AcDbEntity
  8
0
  6
Continuous
 62
     2
100
AcDbLine
 10
153.871824861003
 20
735.56800590236
 30
0.0
 11
155.0646175631695
 21
735.56800590236
 31
0.0
  0
LINE
  5
3AD
102
{ACAD_REACTORS
330
431
330
432
102
}
330
71
100
AcDbEntity
  8
0
  6
Continuous
 62
     2
100
AcDbLine
 10
152.3926109794303
 20
735.2626249499967
 30
0.0
 11
152.3926109794303
 21
734.4773596438732
 31
0.0
  0
LINE
  5
3AE
102
{ACAD_REACTORS
330
431
330
432
102
}
330
71
100
AcDbEntity
  8
0
  6
Continuous
 62
     2
100
AcDbLine
 10
153.203710016905
 20
734.4773596438732
 30
0.0
 11
153.203710016905
 21
732.2088154261858
 31
0.0
  0
LINE
  5
3AF
102
{ACAD_REACTORS
330
431
330
432
102
}
330
71
100
AcDbEntity
  8
0
  6
Continuous
 62
     2
100
AcDbLine
 10
153.203710016905
 20
732.2088154261858
 30
0.0
 11
154.3965027190715
 21
732.2088154261858
 31
0.0
  0
LINE
  5
3B0
102
{ACAD_REACTORS
330
433
330
434
102
}
330
71
100
AcDbEntity
  8
0
  6
Continuous
 62
     2
100
AcDbLine
 10
157.346029212491
 20
732.2088154261858
 30
0.0
 11
157.1345491590152
 21
732.7497759704036
 31
0.0
  0
LINE
  5
3B1
102
{ACAD_REACTORS
330
433
330
434
102
}
330
71
100
AcDbEntity
  8
0
  6
Continuous
 62
     2
100
AcDbLine
 10
157.1885805758046
 20
735.2626249499967
 30
0.0
 11
158.5865336227449
 21
732.2088154261858
 31
0.0
  0
LINE
  5
3B2
102
{ACAD_REACTORS
330
433
330
434
102
}
330
71
100
AcDbEntity
  8
0
  6
Continuous
 62
     2
100
AcDbLine
 10
155.9480761655519
 20
735.2626249499967
 30
0.0
 11
157.1885805758046
 21
735.2626249499967
 31
0.0
  0
LINE
  5
3B3
102
{ACAD_REACTORS
330
433
330
434
102
}
330
71
100
AcDbEntity
  8
0
  6
Continuous
 62
     2
100
AcDbLine
 10
154.5501231186126
 20
732.2088154261858
 30
0.0
 11
155.7906275288655
 21
732.2088154261858
 31
0.0
  0
LINE
  5
3B4
102
{ACAD_REACTORS
330
433
330
434
102
}
330
71
100
AcDbEntity
  8
0
  6
Continuous
 62
     2
100
AcDbLine
 10
156.2681631334864
 20
733.4303392357102
 30
0.0
 11
156.8684936078689
 21
733.4303392357102
 31
0.0
  0
LINE
  5
3B5
102
{ACAD_REACTORS
330
433
330
434
102
}
330
71
100
AcDbEntity
  8
0
  6
Continuous
 62
     2
100
AcDbLine
 10
156.8684936078689
 20
733.4303392357102
 30
0.0
 11
156.5683283706788
 21
734.1981542016969
 31
0.0
  0
LINE
  5
3B6
102
{ACAD_REACTORS
330
435
330
436
102
}
330
71
100
AcDbEntity
  8
0
  6
Continuous
 62
     2
100
AcDbLine
 10
158.9769776262769
 20
735.56800590236
 30
0.0
 11
157.736473216024
 21
735.56800590236
 31
0.0
  0
LINE
  5
3B7
102
{ACAD_REACTORS
330
437
330
438
102
}
330
71
100
AcDbEntity
  8
0
  6
Continuous
 62
     2
100
AcDbLine
 10
160.498981114242
 20
735.56800590236
 30
0.0
 11
159.0962568964937
 21
735.56800590236
 31
0.0
  0
LINE
  5
3B8
102
{ACAD_REACTORS
330
437
330
438
102
}
330
71
100
AcDbEntity
  8
0
  6
Continuous
 62
     2
100
AcDbLine
 10
160.498981114242
 20
735.56800590236
 30
0.0
 11
161.1955720523077
 21
736.3557376876537
 31
0.0
  0
LINE
  5
3B9
102
{ACAD_REACTORS
330
437
330
438
102
}
330
71
100
AcDbEntity
  8
0
  6
Continuous
 62
     2
100
AcDbLine
 10
161.7967395742004
 20
738.6218154261712
 30
0.0
 11
163.1994637919477
 21
738.6218154261712
 31
0.0
  0
LINE
  5
3BA
102
{ACAD_REACTORS
330
437
330
438
102
}
330
71
100
AcDbEntity
  8
0
  6
Continuous
 62
     2
100
AcDbLine
 10
159.1916803126666
 20
738.6218154261712
 30
0.0
 11
160.494209943434
 21
737.148864896135
 31
0.0
  0
LINE
  5
3BB
102
{ACAD_REACTORS
330
437
330
438
102
}
330
71
100
AcDbEntity
  8
0
  6
Continuous
 62
     2
100
AcDbLine
 10
159.0962568964937
 20
735.56800590236
 30
0.0
 11
160.494209943434
 21
737.148864896135
 31
0.0
  0
LINE
  5
3BC
102
{ACAD_REACTORS
330
441
330
442
102
}
330
71
100
AcDbEntity
  8
0
  6
Continuous
 62
     2
100
AcDbLine
 10
160.9570135118737
 20
733.2558358343493
 30
0.0
 11
160.9570135118737
 21
732.383318827546
 31
0.0
  0
LINE
  5
3BD
102
{ACAD_REACTORS
330
441
330
442
102
}
330
71
100
AcDbEntity
  8
0
  6
Continuous
 62
     2
100
AcDbLine
 10
160.1873561689123
 20
734.4773596438732
 30
0.0
 11
161.2909954684804
 21
734.4773596438732
 31
0.0
  0
LINE
  5
3BE
102
{ACAD_REACTORS
330
443
330
444
102
}
330
71
100
AcDbEntity
  8
0
  6
Continuous
 62
     2
100
AcDbLine
 10
144.8543120326218
 20
733.2558358343498
 30
0.0
 11
144.8543120326218
 21
732.3833188275466
 31
0.0
  0
LINE
  5
3BF
102
{ACAD_REACTORS
330
443
330
444
102
}
330
71
100
AcDbEntity
  8
0
  6
Continuous
 62
     2
100
AcDbLine
 10
144.8543120326218
 20
734.2156045418327
 30
0.0
 11
144.8543120326218
 21
735.088121548636
 31
0.0
  0
LINE
  5
3C0
330
71
100
AcDbEntity
  8
1
  6
Continuous
 62
     7
100
AcDbLine
 10
260.6916876176057
 20
733.4153154261694
 30
0.0
 11
167.5468830908543
 21
733.4153154261694
 31
0.0
  0
LINE
  5
3C1
330
71
100
AcDbEntity
  8
1
  6
Continuous
 62
     6
100
AcDbLine
 10
62.14688309085437
 20
724.9153154261694
 30
0.0
 11
17.19168761760437
 21
724.9153154261694
 31
0.0
  0
LINE
  5
3C2
330
71
100
AcDbEntity
  8
1
  6
Continuous
 62
     7
100
AcDbLine
 10
251.7732793359268
 20
750.4153154261694
 30
0.0
 11
251.7732793359268
 21
741.9153154261694
 31
0.0
  0
LINE
  5
3C3
330
71
100
AcDbEntity
  8
1
  6
Continuous
 62
     7
100
AcDbLine
 10
225.2732793359272
 20
750.4153154261694
 30
0.0
 11
225.2732793359272
 21
741.9153154261694
 31
0.0
  0
LINE
  5
3C4
330
71
100
AcDbEntity
  8
1
  6
Continuous
 62
     7
100
AcDbLine
 10
167.5468830908543
 20
741.9153154261694
 30
0.0
 11
167.5468830908543
 21
750.4153154261694
 31
0.0
  0
LINE
  5
3C5
330
71
100
AcDbEntity
  8
1
  6
Continuous
 62
     7
100
AcDbLine
 10
131.1468830908544
 20
741.9153154261694
 30
0.0
 11
131.1468830908544
 21
750.4153154261694
 31
0.0
  0
LINE
  5
3C6
330
71
100
AcDbEntity
  8
1
  6
Continuous
 62
     6
100
AcDbLine
 10
167.5468830908543
 20
741.9153154261694
 30
0.0
 11
260.691687617606
 21
741.9153154261694
 31
0.0
  0
LINE
  5
3C7
330
71
100
AcDbEntity
  8
1
  6
Continuous
 62
     7
100
AcDbLine
 10
195.4468830908544
 20
733.4153154261693
 30
0.0
 11
195.4468830908544
 21
741.9153154261694
 31
0.0
  0
LINE
  5
3C8
330
71
100
AcDbEntity
  8
1
  6
PHANTOM
 62
     2
100
AcDbLine
 10
146.633537977417
 20
746.0403154261693
 30
0.0
 11
141.133537977417
 21
746.0403154261693
 31
0.0
  0
LINE
  5
3C9
330
71
100
AcDbEntity
  8
1
  6
PHANTOM
 62
     2
100
AcDbLine
 10
143.883537977417
 20
748.7903154261693
 30
0.0
 11
143.883537977417
 21
743.2903154261693
 31
0.0
  0
LINE
  5
3CA
330
71
100
AcDbEntity
  8
1
  6
DOT_CENTER
 62
     2
100
AcDbLine
 10
135.133537977417
 20
746.0403154261693
 30
0.0
 11
140.633537977417
 21
746.0403154261693
 31
0.0
  0
ARC
  5
3CB
102
{ACAD_REACTORS
330
443
330
444
102
}
330
71
100
AcDbEntity
  8
0
  6
Continuous
 62
     2
100
AcDbCircle
 10
143.518384115504
 20
730.4230392428351
 30
0.0
 40
4.85259686349804
100
AcDbArc
 50
74.02000874164729
 51
84.84185523037608
  0
ARC
  5
3CC
102
{ACAD_REACTORS
330
443
330
444
102
}
330
71
100
AcDbEntity
  8
0
  6
Continuous
 62
     2
100
AcDbCircle
 10
144.0944247242577
 20
733.5787995987193
 30
0.0
 40
0.9059297849853588
100
AcDbArc
 50
71.55192388185803
 51
113.3722778881275
  0
ARC
  5
3CD
102
{ACAD_REACTORS
330
443
330
444
102
}
330
71
100
AcDbEntity
  8
0
  6
Continuous
 62
     2
100
AcDbCircle
 10
143.9379846915556
 20
733.5306487587525
 30
0.0
 40
0.5115800601948284
100
AcDbArc
 50
208.521473257694
 51
246.6277221118307
  0
ARC
  5
3CE
102
{ACAD_REACTORS
330
443
330
444
102
}
330
71
100
AcDbEntity
  8
0
  6
Continuous
 62
     2
100
AcDbCircle
 10
144.0944247242577
 20
733.8926407774625
 30
0.0
 40
0.905929784984867
100
AcDbArc
 50
246.6277221118696
 51
288.4480761181556
  0
ARC
  5
3CF
102
{ACAD_REACTORS
330
443
330
444
102
}
330
71
100
AcDbEntity
  8
0
  6
Continuous
 62
     2
100
AcDbCircle
 10
143.6762569905969
 20
735.1461865534997
 30
0.0
 40
2.227384008972692
100
AcDbArc
 50
288.4480761181316
 51
301.9309089499603
  0
ARC
  5
3D0
102
{ACAD_REACTORS
330
43F
330
440
102
}
330
71
100
AcDbEntity
  8
0
  6
Continuous
 62
     2
100
AcDbCircle
 10
138.4511832579901
 20
735.8786885824137
 30
0.0
 40
0.9118481501444333
100
AcDbArc
 50
295.3740086781772
 51
64.62599132180748
  0
ARC
  5
3D1
102
{ACAD_REACTORS
330
43F
330
440
102
}
330
71
100
AcDbEntity
  8
0
  6
Continuous
 62
     2
100
AcDbCircle
 10
138.9772259560779
 20
737.5933654708883
 30
0.0
 40
0.3157169230760138
100
AcDbArc
 50
90.18896704252533
 51
180.0
  0
ARC
  5
3D2
102
{ACAD_REACTORS
330
441
330
442
102
}
330
71
100
AcDbEntity
  8
0
  6
Continuous
 62
     2
100
AcDbCircle
 10
160.1873561689123
 20
733.5228366370471
 30
0.0
 40
0.9545230068260935
100
AcDbArc
 50
90.0
 51
109.3371432194304
  0
ARC
  5
3D3
102
{ACAD_REACTORS
330
441
330
442
102
}
330
71
100
AcDbEntity
  8
0
  6
Continuous
 62
     2
100
AcDbCircle
 10
160.4180434288899
 20
733.735720188091
 30
0.0
 40
0.9410597353348061
100
AcDbArc
 50
151.4785267423576
 51
208.5214732576728
  0
ARC
  5
3D4
102
{ACAD_REACTORS
330
441
330
442
102
}
330
71
100
AcDbEntity
  8
0
  6
Continuous
 62
     2
100
AcDbCircle
 10
160.1971262035117
 20
733.8926407774625
 30
0.0
 40
0.9059297849852166
100
AcDbArc
 50
246.6277221118185
 51
288.4480761180846
  0
ARC
  5
3D5
102
{ACAD_REACTORS
330
441
330
442
102
}
330
71
100
AcDbEntity
  8
0
  6
Continuous
 62
     2
100
AcDbCircle
 10
159.7789584698498
 20
735.1461865534991
 30
0.0
 40
2.227384008972719
100
AcDbArc
 50
288.4480761181337
 51
301.9309089499395
  0
ARC
  5
3D6
102
{ACAD_REACTORS
330
441
330
442
102
}
330
71
100
AcDbEntity
  8
0
  6
Continuous
 62
     2
100
AcDbCircle
 10
159.621085594757
 20
737.0484011333474
 30
0.0
 40
4.852596863498822
100
AcDbArc
 50
275.158144769636
 51
285.9799912583383
  0
ARC
  5
3D7
102
{ACAD_REACTORS
330
441
330
442
102
}
330
71
100
AcDbEntity
  8
0
  6
Continuous
 62
     2
100
AcDbCircle
 10
159.9099416894928
 20
733.8485105501259
 30
0.0
 40
1.639695123940531
100
AcDbArc
 50
195.0618917771004
 51
275.158144769676
  0
ARC
  5
3D8
102
{ACAD_REACTORS
330
439
330
43A
102
}
330
71
100
AcDbEntity
  8
0
  6
Continuous
 62
     2
100
AcDbCircle
 10
144.1817283778017
 20
737.5664497848375
 30
0.0
 40
1.055365641333651
100
AcDbArc
 50
270.0
 51
90.0
  0
ARC
  5
3D9
102
{ACAD_REACTORS
330
43F
330
440
102
}
330
71
100
AcDbEntity
  8
0
  6
Continuous
 62
     2
100
AcDbCircle
 10
136.4016772695462
 20
733.2370879048193
 30
0.0
 40
0.3157169230755983
100
AcDbArc
 50
180.0
 51
270.0
  0
ARC
  5
3DA
102
{ACAD_REACTORS
330
43F
330
440
102
}
330
71
100
AcDbEntity
  8
0
  6
Continuous
 62
     2
100
AcDbCircle
 10
137.8775105305559
 20
737.5935429475364
 30
0.0
 40
0.315716923076593
100
AcDbArc
 50
0.0
 51
90.0
  0
ARC
  5
3DB
102
{ACAD_REACTORS
330
43F
330
440
102
}
330
71
100
AcDbEntity
  8
0
  6
Continuous
 62
     2
100
AcDbCircle
 10
137.8775105305559
 20
736.9895183284759
 30
0.0
 40
0.3157169230761717
100
AcDbArc
 50
295.1944106485354
 51
0.0
  0
ARC
  5
3DC
102
{ACAD_REACTORS
330
43F
330
440
102
}
330
71
100
AcDbEntity
  8
0
  6
Continuous
 62
     2
100
AcDbCircle
 10
137.8775105305559
 20
733.2370879048193
 30
0.0
 40
0.3157169230767067
100
AcDbArc
 50
270.0
 51
0.0
  0
ARC
  5
3DD
102
{ACAD_REACTORS
330
43F
330
440
102
}
330
71
100
AcDbEntity
  8
0
  6
Continuous
 62
     2
100
AcDbCircle
 10
135.8077825927998
 20
738.1975708107692
 30
0.0
 40
0.4242446153838273
100
AcDbArc
 50
90.0
 51
180.0
  0
ARC
  5
3DE
102
{ACAD_REACTORS
330
43F
330
440
102
}
330
71
100
AcDbEntity
  8
0
  6
Continuous
 62
     2
100
AcDbCircle
 10
141.2810946835166
 20
738.1975708107692
 30
0.0
 40
0.4242446153837989
100
AcDbArc
 50
0.0
 51
90.0
  0
ARC
  5
3DF
102
{ACAD_REACTORS
330
43F
330
440
102
}
330
71
100
AcDbEntity
  8
0
  6
Continuous
 62
     2
100
AcDbCircle
 10
141.2810946835166
 20
732.633060041569
 30
0.0
 40
0.4242446153832589
100
AcDbArc
 50
270.0
 51
0.0
  0
ARC
  5
3E0
102
{ACAD_REACTORS
330
43D
330
43E
102
}
330
71
100
AcDbEntity
  8
0
  6
Continuous
 62
     2
100
AcDbCircle
 10
150.4994785706081
 20
737.0949106642653
 30
0.0
 40
0.7717997786796597
100
AcDbArc
 50
321.879580202845
 51
38.12041979716158
  0
ARC
  5
3E1
102
{ACAD_REACTORS
330
43D
330
43E
102
}
330
71
100
AcDbEntity
  8
0
  6
Continuous
 62
     2
100
AcDbCircle
 10
150.6992186069543
 20
736.9381794861449
 30
0.0
 40
0.5179085730134722
100
AcDbArc
 50
218.120419797156
 51
321.8795802028517
  0
ARC
  5
3E2
102
{ACAD_REACTORS
330
43B
330
43C
102
}
330
71
100
AcDbEntity
  8
0
  6
Continuous
 62
     2
100
AcDbCircle
 10
147.0192110179941
 20
733.735720188091
 30
0.0
 40
1.458034083651977
100
AcDbArc
 50
297.5481481757016
 51
62.45185182429842
  0
ARC
  5
3E3
102
{ACAD_REACTORS
330
43B
330
43C
102
}
330
71
100
AcDbEntity
  8
0
  6
Continuous
 62
     2
100
AcDbCircle
 10
146.4573312343275
 20
733.735720188091
 30
0.0
 40
1.458034083651478
100
AcDbArc
 50
117.5481481756639
 51
242.451851824336
  0
ARC
  5
3E4
102
{ACAD_REACTORS
330
43B
330
43C
102
}
330
71
100
AcDbEntity
  8
0
  6
Continuous
 62
     2
100
AcDbCircle
 10
146.7382711261608
 20
733.1971451777882
 30
0.0
 40
2.065479772208543
100
AcDbArc
 50
62.451851824306
 51
117.5481481756674
  0
ARC
  5
3E5
102
{ACAD_REACTORS
330
43B
330
43C
102
}
330
71
100
AcDbEntity
  8
0
  6
Continuous
 62
     2
100
AcDbCircle
 10
146.7382711261608
 20
734.2742951983943
 30
0.0
 40
2.065479772208446
100
AcDbArc
 50
242.4518518243384
 51
297.5481481756882
  0
ARC
  5
3E6
102
{ACAD_REACTORS
330
43D
330
43E
102
}
330
71
100
AcDbEntity
  8
0
  6
Continuous
 62
     2
100
AcDbCircle
 10
150.8989586433006
 20
737.0949106642653
 30
0.0
 40
0.7717997786797075
100
AcDbArc
 50
141.8795802028371
 51
218.1204197971562
  0
ARC
  5
3E7
102
{ACAD_REACTORS
330
43D
330
43E
102
}
330
71
100
AcDbEntity
  8
0
  6
Continuous
 62
     2
100
AcDbCircle
 10
150.6992186069543
 20
737.2516418423858
 30
0.0
 40
0.5179085730135616
100
AcDbArc
 50
38.12041979714829
 51
141.879580202844
  0
ARC
  5
3E8
102
{ACAD_REACTORS
330
43F
330
440
102
}
330
71
100
AcDbEntity
  8
0
  6
Continuous
 62
     2
100
AcDbCircle
 10
135.8077825927998
 20
732.633060041569
 30
0.0
 40
0.4242446153828041
100
AcDbArc
 50
180.0
 51
270.0
  0
ARC
  5
3E9
102
{ACAD_REACTORS
330
43F
330
440
102
}
330
71
100
AcDbEntity
  8
0
  6
Continuous
 62
     2
100
AcDbCircle
 10
137.8775105305559
 20
734.7678588363509
 30
0.0
 40
0.315716923076593
100
AcDbArc
 50
0.0
 51
64.80558935146468
  0
ARC
  5
3EA
102
{ACAD_REACTORS
330
43F
330
440
102
}
330
71
100
AcDbEntity
  8
0
  6
Continuous
 62
     2
100
AcDbCircle
 10
138.4000949781309
 20
735.8786885824137
 30
0.0
 40
0.911897523557601
100
AcDbArc
 50
115.1944106485306
 51
244.8055893514846
  0
ARC
  5
3EB
102
{ACAD_REACTORS
330
43F
330
440
102
}
330
71
100
AcDbEntity
  8
0
  6
Continuous
 62
     2
100
AcDbCircle
 10
136.4016772695462
 20
737.5935429475364
 30
0.0
 40
0.3157169230761383
100
AcDbArc
 50
90.0
 51
180.0
  0
ARC
  5
3EC
102
{ACAD_REACTORS
330
439
330
43A
102
}
330
71
100
AcDbEntity
  8
0
  6
Continuous
 62
     2
100
AcDbCircle
 10
143.7402558515633
 20
737.60584575606
 30
0.0
 40
0.3528638246712035
100
AcDbArc
 50
270.0
 51
90.0
  0
ARC
  5
3ED
102
{ACAD_REACTORS
330
43D
330
43E
102
}
330
71
100
AcDbEntity
  8
0
  6
Continuous
 62
     2
100
AcDbCircle
 10
150.4829465967891
 20
737.0949106642653
 30
0.0
 40
1.526904761905939
100
AcDbArc
 50
90.0
 51
270.0
  0
ARC
  5
3EE
102
{ACAD_REACTORS
330
441
330
442
102
}
330
71
100
AcDbEntity
  8
0
  6
Continuous
 62
     2
100
AcDbCircle
 10
159.9099416894928
 20
733.6229298260561
 30
0.0
 40
1.639695123940214
100
AcDbArc
 50
90.0
 51
164.9381082228957
  0
ARC
  5
3EF
102
{ACAD_REACTORS
330
441
330
442
102
}
330
71
100
AcDbEntity
  8
0
  6
Continuous
 62
     2
100
AcDbCircle
 10
159.4908138460312
 20
733.735720188091
 30
0.0
 40
1.20565616839307
100
AcDbArc
 50
164.9381082229064
 51
195.0618917770936
  0
ARC
  5
3F0
102
{ACAD_REACTORS
330
441
330
442
102
}
330
71
100
AcDbEntity
  8
0
  6
Continuous
 62
     2
100
AcDbCircle
 10
160.0406861708086
 20
733.5306487587525
 30
0.0
 40
0.5115800601959944
100
AcDbArc
 50
208.521473257681
 51
246.6277221118424
  0
ARC
  5
3F1
102
{ACAD_REACTORS
330
441
330
442
102
}
330
71
100
AcDbEntity
  8
0
  6
Continuous
 62
     2
100
AcDbCircle
 10
160.0406861708086
 20
733.94079161743
 30
0.0
 40
0.5115800601944143
100
AcDbArc
 50
109.3371432194853
 51
151.4785267424197
  0
ARC
  5
3F2
102
{ACAD_REACTORS
330
43F
330
440
102
}
330
71
100
AcDbEntity
  8
0
  6
Continuous
 62
     2
100
AcDbCircle
 10
138.9772259560779
 20
734.1876955757502
 30
0.0
 40
0.3157169230766783
100
AcDbArc
 50
180.0
 51
269.8110329574748
  0
ARC
  5
3F3
102
{ACAD_REACTORS
330
43F
330
440
102
}
330
71
100
AcDbEntity
  8
0
  6
Continuous
 62
     2
100
AcDbCircle
 10
138.982842091388
 20
735.8905305233192
 30
0.0
 40
2.018561131933266
100
AcDbArc
 50
269.8110329575866
 51
90.18896704241334
  0
ARC
  5
3F4
102
{ACAD_REACTORS
330
43F
330
440
102
}
330
71
100
AcDbEntity
  8
0
  6
Continuous
 62
     2
100
AcDbCircle
 10
138.9772259560779
 20
736.9878301823815
 30
0.0
 40
0.3157169230766783
100
AcDbArc
 50
180.0
 51
244.6259913216578
  0
ARC
  5
3F5
102
{ACAD_REACTORS
330
43F
330
440
102
}
330
71
100
AcDbEntity
  8
0
  6
Continuous
 62
     2
100
AcDbCircle
 10
138.9772259560779
 20
734.7695469824453
 30
0.0
 40
0.3157169230765476
100
AcDbArc
 50
115.3740086783335
 51
180.0
  0
ARC
  5
3F6
102
{ACAD_REACTORS
330
443
330
444
102
}
330
71
100
AcDbEntity
  8
0
  6
Continuous
 62
     2
100
AcDbCircle
 10
143.8072402102399
 20
733.6229298260561
 30
0.0
 40
1.639695123940555
100
AcDbArc
 50
84.8418552303655
 51
164.9381082228867
  0
ARC
  5
3F7
102
{ACAD_REACTORS
330
443
330
444
102
}
330
71
100
AcDbEntity
  8
0
  6
Continuous
 62
     2
100
AcDbCircle
 10
143.3881123667771
 20
733.735720188091
 30
0.0
 40
1.205656168390957
100
AcDbArc
 50
164.9381082228794
 51
195.0618917770945
  0
ARC
  5
3F8
102
{ACAD_REACTORS
330
443
330
444
102
}
330
71
100
AcDbEntity
  8
0
  6
Continuous
 62
     2
100
AcDbCircle
 10
143.8072402102399
 20
733.8485105501259
 30
0.0
 40
1.639695123939422
100
AcDbArc
 50
195.0618917770903
 51
275.1581447696363
  0
ARC
  5
3F9
102
{ACAD_REACTORS
330
443
330
444
102
}
330
71
100
AcDbEntity
  8
0
  6
Continuous
 62
     2
100
AcDbCircle
 10
143.518384115504
 20
737.0484011333474
 30
0.0
 40
4.852596863498159
100
AcDbArc
 50
275.158144769624
 51
285.979991258353
  0
ARC
  5
3FA
102
{ACAD_REACTORS
330
443
330
444
102
}
330
71
100
AcDbEntity
  8
0
  6
Continuous
 62
     2
100
AcDbCircle
 10
144.315341949636
 20
733.735720188091
 30
0.0
 40
0.9410597353333544
100
AcDbArc
 50
151.4785267422702
 51
208.5214732577055
  0
ARC
  5
3FB
102
{ACAD_REACTORS
330
443
330
444
102
}
330
71
100
AcDbEntity
  8
0
  6
Continuous
 62
     2
100
AcDbCircle
 10
143.9379846915556
 20
733.94079161743
 30
0.0
 40
0.5115800601948293
100
AcDbArc
 50
113.3722778881945
 51
151.4785267423059
  0
ARC
  5
3FC
102
{ACAD_REACTORS
330
443
330
444
102
}
330
71
100
AcDbEntity
  8
0
  6
Continuous
 62
     2
100
AcDbCircle
 10
143.6762569905969
 20
732.3252538226828
 30
0.0
 40
2.227384008973468
100
AcDbArc
 50
58.06909105003972
 51
71.55192388186838
  0
ARC
  5
3FD
102
{ACAD_REACTORS
330
43B
330
43C
102
}
330
71
100
AcDbEntity
  8
0
  6
Continuous
 62
     2
100
AcDbCircle
 10
146.7382711261608
 20
733.8924513662115
 30
0.0
 40
0.5179085730133126
100
AcDbArc
 50
38.12041979715392
 51
141.8795802028558
  0
ARC
  5
3FE
102
{ACAD_REACTORS
330
43B
330
43C
102
}
330
71
100
AcDbEntity
  8
0
  6
Continuous
 62
     2
100
AcDbCircle
 10
146.9380111625069
 20
733.735720188091
 30
0.0
 40
0.7717997786795031
100
AcDbArc
 50
141.879580202836
 51
218.1204197971707
  0
ARC
  5
3FF
102
{ACAD_REACTORS
330
43B
330
43C
102
}
330
71
100
AcDbEntity
  8
0
  6
Continuous
 62
     2
100
AcDbCircle
 10
146.7382711261608
 20
733.578989009971
 30
0.0
 40
0.5179085730137754
100
AcDbArc
 50
218.1204197971937
 51
321.8795802027966
  0
ARC
  5
400
102
{ACAD_REACTORS
330
43B
330
43C
102
}
330
71
100
AcDbEntity
  8
0
  6
Continuous
 62
     2
100
AcDbCircle
 10
146.5385310898143
 20
733.735720188091
 30
0.0
 40
0.7717997786797746
100
AcDbArc
 50
321.8795802028411
 51
38.12041979715234
  0
CIRCLE
  5
401
330
71
100
AcDbEntity
  8
1
  6
Continuous
 62
     2
100
AcDbCircle
 10
143.883537977417
 20
746.0403154261693
 30
0.0
 40
2.5
  0
CIRCLE
  5
402
330
71
100
AcDbEntity
  8
1
  6
Continuous
 62
     2
100
AcDbCircle
 10
143.883537977417
 20
746.0403154261693
 30
0.0
 40
1.249999999999886
  0
CIRCLE
  5
403
102
{ACAD_REACTORS
330
43F
330
440
102
}
330
71
100
AcDbEntity
  8
0
  6
Continuous
 62
     2
100
AcDbCircle
 10
138.4273682433173
 20
735.8786885824137
 30
0.0
 40
0.4709789327785074
  0
MTEXT
  5
404
330
71
100
AcDbEntity
  8
1
 62
     3
100
AcDbMText
 10
-26.30324459632385
 20
911.7066235814682
 30
0.0
 40
1.8
 41
0.0
 71
     7
 72
     1
  3
Weitergabe sowie Vervielf\U+00e4ltigung dieses Dokuments, Verwertung und \PMitteilung seines Inhalts sind verboten, soweit nicht ausdr\U+00fccklich gestattet. \PZuwiderhandlungen verpflichten zu Schadenersatz. Alle Rechte f\U+00fcr den Fall\Pder Pat
  1
ent-, Gebrauchsmuster- oder Designeintragung vorbehalten.
  7
CONVERTER_11
 73
     1
 44
0.99639855942377
  0
MTEXT
  5
405
330
71
100
AcDbEntity
  8
1
 62
     3
100
AcDbMText
 10
156.5498652424643
 20
911.7066235814682
 30
0.0
 40
1.8
 41
0.0
 71
     7
 72
     1
  3
Transfer or duplication of this document as well as the utilisation or\Pcommunication of its content are not permitted unless express consent\Pis granted. Violations give rise to claims for damages. All rights reserved\Pin case of patent, utility mo
  1
del or design patent registrations.
  7
CONVERTER_11
 73
     1
 44
0.99639855942377
  0
TEXT
  5
406
330
71
100
AcDbEntity
  8
1
 62
     2
100
AcDbText
 10
150.3468830908542
 20
726.1562982111777
 30
0.0
 40
1.8
  1
of
 41
0.9
  7
CONVERTER_11
100
AcDbText
  0
TEXT
  5
407
330
71
100
AcDbEntity
  8
1
 62
     2
100
AcDbText
 10
132.1468830908544
 20
726.1562982111777
 30
0.0
 40
1.8
  1
page
 41
0.9
  7
CONVERTER_11
100
AcDbText
  0
TEXT
  5
408
330
71
100
AcDbEntity
  8
1
 62
     2
100
AcDbText
 10
140.7931480611964
 20
726.1160667723674
 30
0.0
 40
1.8
  1
1
 41
0.9
  7
CONVERTER_11
100
AcDbText
  0
TEXT
  5
409
330
71
100
AcDbEntity
  8
1
 62
     2
100
AcDbText
 10
155.5821919006679
 20
726.1653154261693
 30
0.0
 40
1.8
  1
1
 41
0.9
  7
CONVERTER_11
100
AcDbText
  0
MTEXT
  5
40B
330
71
100
AcDbEntity
  8
1
 62
     7
100
AcDbMText
 10
214.1192853542299
 20
728.1653154261696
 30
0.0
 40
3.0
 41
0.0
 71
     5
 72
     1
  1
STN 16
  7
CONVERTER_12
 73
     1
 44
1.20048019207683
  0
MTEXT
  5
40C
330
71
100
AcDbEntity
  8
1
 62
     2
100
AcDbMText
 10
168.5468830908543
 20
732.4153154261694
 30
0.0
 40
1.8
 41
0.0
 71
     1
 72
     1
  1
description
  7
CONVERTER_11
 73
     1
 44
1.20048019207683
  0
MTEXT
  5
40D
330
71
100
AcDbEntity
  8
1
 62
     3
100
AcDbMText
 10
157.3468830908543
 20
746.0403154261694
 30
0.0
 40
2.5
 41
0.0
 71
     5
 72
     1
  1
DIN A4
  7
CONVERTER_11
 73
     1
 44
1.20048019207683
  0
MTEXT
  5
40E
330
71
100
AcDbEntity
  8
1
 62
     7
100
AcDbMText
 10
-28.80831238239472
 20
747.4153154261694
 30
0.0
 40
3.5
 41
0.0
 71
     5
 72
     1
  1
D
  7
CONVERTER_11
 73
     1
 44
1.20048019207683
  0
MTEXT
  5
40F
330
71
100
AcDbEntity
  8
1
 62
     7
100
AcDbMText
 10
-28.80831238239472
 20
799.9153154261694
 30
0.0
 40
3.5
 41
0.0
 71
     5
 72
     1
  1
C
  7
CONVERTER_11
 73
     1
 44
1.20048019207683
  0
MTEXT
  5
410
330
71
100
AcDbEntity
  8
1
 62
     7
100
AcDbMText
 10
-28.80831238239472
 20
849.9153154261694
 30
0.0
 40
3.5
 41
0.0
 71
     5
 72
     1
  1
B
  7
CONVERTER_11
 73
     1
 44
1.20048019207683
  0
MTEXT
  5
411
330
71
100
AcDbEntity
  8
1
 62
     7
100
AcDbMText
 10
-28.80831238239472
 20
902.4153154261694
 30
0.0
 40
3.5
 41
0.0
 71
     5
 72
     1
  1
A
  7
CONVERTER_11
 73
     1
 44
1.20048019207683
  0
MTEXT
  5
412
330
71
100
AcDbEntity
  8
1
 62
     7
100
AcDbMText
 10
241.4416876176036
 20
722.4153154261693
 30
0.0
 40
3.5
 41
0.0
 71
     5
 72
     1
  1
6
  7
CONVERTER_11
 73
     1
 44
1.20048019207683
  0
MTEXT
  5
413
330
71
100
AcDbEntity
  8
1
 62
     7
100
AcDbMText
 10
192.1916876176043
 20
722.4153154261693
 30
0.0
 40
3.5
 41
0.0
 71
     5
 72
     1
  1
5
  7
CONVERTER_11
 73
     1
 44
1.20048019207683
  0
MTEXT
  5
414
330
71
100
AcDbEntity
  8
1
 62
     7
100
AcDbMText
 10
142.1916876176043
 20
722.4153154261693
 30
0.0
 40
3.5
 41
0.0
 71
     5
 72
     1
  1
4
  7
CONVERTER_11
 73
     1
 44
1.20048019207683
  0
MTEXT
  5
415
330
71
100
AcDbEntity
  8
1
 62
     7
100
AcDbMText
 10
92.19168761760437
 20
722.4153154261693
 30
0.0
 40
3.5
 41
0.0
 71
     5
 72
     1
  1
3
  7
CONVERTER_11
 73
     1
 44
1.20048019207683
  0
MTEXT
  5
416
330
71
100
AcDbEntity
  8
1
 62
     7
100
AcDbMText
 10
42.19168761760437
 20
722.4153154261693
 30
0.0
 40
3.5
 41
0.0
 71
     5
 72
     1
  1
2
  7
CONVERTER_11
 73
     1
 44
1.20048019207683
  0
MTEXT
  5
417
330
71
100
AcDbEntity
  8
1
 62
     7
100
AcDbMText
 10
-7.05831238239523
 20
722.4153154261693
 30
0.0
 40
3.5
 41
0.0
 71
     5
 72
     1
  1
1
  7
CONVERTER_11
 73
     1
 44
1.20048019207683
  0
MTEXT
  5
418
330
71
100
AcDbEntity
  8
1
 62
     7
100
AcDbMText
 10
263.1916876176034
 20
747.4153154261694
 30
0.0
 40
3.5
 41
0.0
 71
     5
 72
     1
  1
D
  7
CONVERTER_11
 73
     1
 44
1.20048019207683
  0
MTEXT
  5
419
330
71
100
AcDbEntity
  8
1
 62
     7
100
AcDbMText
 10
263.1916876176034
 20
849.9153154261713
 30
0.0
 40
3.5
 41
0.0
 71
     5
 72
     1
  1
B
  7
CONVERTER_11
 73
     1
 44
1.20048019207683
  0
MTEXT
  5
41A
330
71
100
AcDbEntity
  8
1
 62
     7
100
AcDbMText
 10
263.1916876176034
 20
902.4153154261694
 30
0.0
 40
3.5
 41
0.0
 71
     5
 72
     1
  1
A
  7
CONVERTER_11
 73
     1
 44
1.20048019207683
  0
MTEXT
  5
41B
330
71
100
AcDbEntity
  8
1
 62
     7
100
AcDbMText
 10
263.1916876176034
 20
799.9153154261713
 30
0.0
 40
3.5
 41
0.0
 71
     5
 72
     1
  1
C
  7
CONVERTER_11
 73
     1
 44
1.20048019207683
  0
MTEXT
  5
41C
330
71
100
AcDbEntity
  8
1
 62
     2
100
AcDbMText
 10
96.70886836580684
 20
737.6653154261693
 30
0.0
 40
2.0
 41
0.0
 71
     5
 72
     1
  1
General Information\P- Simplified representation\P- Document excluded from change process\P- Linear dimensions [mm]
  7
CONVERTER_11
 73
     1
 44
1.20048019207683
  0
TEXT
  5
41D
330
71
100
AcDbEntity
  8
1
 62
     7
100
AcDbText
 10
169.0468830908541
 20
734.7153154261694
 30
0.0
 40
2.5
  1
3038286
 41
0.81
  7
CONVERTER_12
100
AcDbText
  0
MTEXT
  5
41E
330
71
100
AcDbEntity
  8
1
 62
     2
100
AcDbMText
 10
168.6468830908544
 20
740.9153154261694
 30
0.0
 40
1.8
 41
0.0
 71
     1
 72
     1
  1
ident.-No.
  7
CONVERTER_11
 73
     1
 44
1.20048019207683
  0
MTEXT
  5
41F
330
71
100
AcDbEntity
  8
1
 62
     2
100
AcDbMText
 10
252.8732793359271
 20
749.4153154261694
 30
0.0
 40
1.8
 41
0.0
 71
     1
 72
     1
  1
scale
  7
CONVERTER_11
 73
     1
 44
1.20048019207683
  0
MTEXT
  5
421
330
71
100
AcDbEntity
  8
1
 62
     3
100
AcDbMText
 10
256.2324834767667
 20
743.2153154261695
 30
0.0
 40
2.5
 41
0.0
 71
     8
 72
     1
  1
1:1
  7
CONVERTER_13
 73
     1
 44
1.32052821128451
  0
TEXT
  5
422
330
71
100
AcDbEntity
  8
1
 62
     7
100
AcDbText
 10
168.6468830908544
 20
743.2153154261694
 30
0.0
 40
2.5
  1
00527719
 41
0.81
  7
CONVERTER_12
100
AcDbText
  0
MTEXT
  5
424
330
71
100
AcDbEntity
  8
1
 62
     2
100
AcDbMText
 10
168.6468830908544
 20
749.4153154261694
 30
0.0
 40
1.8
 41
0.0
 71
     1
 72
     1
  1
document-No. / RI
  7
CONVERTER_14
 73
     1
 44
1.32052821128451
  0
TEXT
  5
425
330
71
100
AcDbEntity
  8
1
 62
     3
100
AcDbText
 10
196.4468830908544
 20
734.7153154261694
 30
0.0
 40
2.5
  1
TECDOC 2D_Productdrawing
 41
0.81
  7
CONVERTER_12
100
AcDbText
  0
MTEXT
  5
426
330
71
100
AcDbEntity
  8
1
 62
     2
100
AcDbMText
 10
196.4468830908544
 20
740.9153154261693
 30
0.0
 40
1.8
 41
0.0
 71
     1
 72
     1
  1
document-type
  7
CONVERTER_11
 73
     1
 44
1.20048019207683
  0
MTEXT
  5
427
330
71
100
AcDbEntity
  8
1
 62
     2
100
AcDbMText
 10
226.2732793359272
 20
749.4153154261693
 30
0.0
 40
1.8
 41
0.0
 71
     1
 72
     1
  1
date
  7
CONVERTER_11
 73
     1
 44
1.32052821128451
  0
TEXT
  5
428
330
71
100
AcDbEntity
  8
1
 62
     3
100
AcDbText
 10
226.2732793359272
 20
743.2153154261694
 30
0.0
 40
2.5
  1
31.03.2018
 41
0.81
  7
CONVERTER_12
100
AcDbText
  0
TEXT
  5
429
330
71
100
AcDbEntity
  8
1
 62
     7
100
AcDbText
 10
188.6767953099102
 20
743.2153154261694
 30
0.0
 40
2.5
  1
01
 41
0.81
  7
CONVERTER_12
100
AcDbText
  0
TEXT
  5
42A
330
71
100
AcDbEntity
  8
1
 62
     7
100
AcDbText
 10
186.5204308128681
 20
743.2153154261694
 30
0.0
 40
2.5
  1
/
 41
0.9
  7
CONVERTER_11
100
AcDbText
  0
HATCH
  5
42B
330
71
100
AcDbEntity
  8
1
  6
Continuous
 62
     2
100
AcDbHatch
 10
0.0
 20
0.0
 30
0.0
210
0.0
220
0.0
230
1.0
  2
_USER
 70
     0
 71
     1
 91
        1
 92
        1
 93
       12
 72
     1
 10
148.8143838038155
 20
735.56800590236
 11
147.6215911016491
 21
735.56800590236
 72
     1
 10
147.6215911016491
 20
735.56800590236
 11
147.6215911016491
 21
736.7022780112038
 72
     1
 10
147.6215911016491
 20
736.7022780112038
 11
146.5719335237416
 21
736.7022780112038
 72
     1
 10
146.5719335237416
 20
736.7022780112038
 11
146.5719335237416
 21
735.56800590236
 72
     1
 10
146.5719335237416
 20
735.56800590236
 11
145.379140821575
 21
735.56800590236
 72
     1
 10
145.379140821575
 20
735.56800590236
 11
145.379140821575
 21
738.6218154261712
 72
     1
 10
145.379140821575
 20
738.6218154261712
 11
146.5719335237416
 21
738.6218154261712
 72
     1
 10
146.5719335237416
 20
738.6218154261712
 11
146.5719335237416
 21
737.5529820928366
 72
     1
 10
146.5719335237416
 20
737.5529820928366
 11
147.6215911016491
 21
737.5529820928366
 72
     1
 10
147.6215911016491
 20
737.5529820928366
 11
147.6215911016491
 21
738.6218154261712
 72
     1
 10
147.6215911016491
 20
738.6218154261712
 11
148.8143838038155
 21
738.6218154261712
 72
     1
 10
148.8143838038155
 20
738.6218154261712
 11
148.8143838038155
 21
735.56800590236
 97
       12
330
398
330
399
330
383
330
382
330
381
330
395
330
380
330
396
330
397
330
37F
330
37E
330
37D
 75
     1
 76
     0
 52
45.0
 41
0.1
 77
     0
 78
     1
 53
45.0
 43
0.0
 44
0.0
 45
-0.0707106781186548
 46
0.0707106781186548
 79
     0
 98
        1
 10
0.0
 20
0.0
  0
HATCH
  5
42C
330
71
100
AcDbEntity
  8
1
  6
Continuous
 62
     2
100
AcDbHatch
 10
0.0
 20
0.0
 30
0.0
210
0.0
220
0.0
230
1.0
  2
_USER
 70
     0
 71
     1
 91
        1
 92
        1
 93
       12
 72
     1
 10
148.8143838038155
 20
735.56800590236
 11
147.6215911016491
 21
735.56800590236
 72
     1
 10
147.6215911016491
 20
735.56800590236
 11
147.6215911016491
 21
736.7022780112038
 72
     1
 10
147.6215911016491
 20
736.7022780112038
 11
146.5719335237416
 21
736.7022780112038
 72
     1
 10
146.5719335237416
 20
736.7022780112038
 11
146.5719335237416
 21
735.56800590236
 72
     1
 10
146.5719335237416
 20
735.56800590236
 11
145.379140821575
 21
735.56800590236
 72
     1
 10
145.379140821575
 20
735.56800590236
 11
145.379140821575
 21
738.6218154261712
 72
     1
 10
145.379140821575
 20
738.6218154261712
 11
146.5719335237416
 21
738.6218154261712
 72
     1
 10
146.5719335237416
 20
738.6218154261712
 11
146.5719335237416
 21
737.5529820928366
 72
     1
 10
146.5719335237416
 20
737.5529820928366
 11
147.6215911016491
 21
737.5529820928366
 72
     1
 10
147.6215911016491
 20
737.5529820928366
 11
147.6215911016491
 21
738.6218154261712
 72
     1
 10
147.6215911016491
 20
738.6218154261712
 11
148.8143838038155
 21
738.6218154261712
 72
     1
 10
148.8143838038155
 20
738.6218154261712
 11
148.8143838038155
 21
735.56800590236
 97
       12
330
398
330
399
330
383
330
382
330
381
330
395
330
380
330
396
330
397
330
37F
330
37E
330
37D
 75
     1
 76
     0
 52
45.0
 41
0.1
 77
     0
 78
     1
 53
45.0
 43
0.0
 44
0.0
 45
-0.0707106781186548
 46
0.0707106781186548
 79
     0
 98
        1
 10
0.0
 20
0.0
  0
HATCH
  5
42D
330
71
100
AcDbEntity
  8
1
  6
Continuous
 62
     2
100
AcDbHatch
 10
0.0
 20
0.0
 30
0.0
210
0.0
220
0.0
230
1.0
  2
_USER
 70
     0
 71
     1
 91
        1
 92
        1
 93
       10
 72
     1
 10
151.0566831530038
 20
733.9538494397917
 11
149.8161787427509
 21
735.2626249499967
 72
     1
 10
149.8161787427509
 20
735.2626249499967
 11
148.6233860405833
 21
735.2626249499967
 72
     1
 10
148.6233860405833
 20
735.2626249499967
 11
148.6233860405833
 21
732.2088154261858
 72
     1
 10
148.6233860405833
 20
732.2088154261858
 11
149.8161787427509
 21
732.2088154261858
 72
     1
 10
149.8161787427509
 20
732.2088154261858
 11
149.8161787427509
 21
733.5175909363903
 72
     1
 10
149.8161787427509
 20
733.5175909363903
 11
151.0566831530038
 21
732.2088154261858
 72
     1
 10
151.0566831530038
 20
732.2088154261858
 11
152.2494758551702
 21
732.2088154261858
 72
     1
 10
152.2494758551702
 20
732.2088154261858
 11
152.2494758551702
 21
735.2626249499967
 72
     1
 10
152.2494758551702
 20
735.2626249499967
 11
151.0566831530038
 21
735.2626249499967
 72
     1
 10
151.0566831530038
 20
735.2626249499967
 11
151.0566831530038
 21
733.9538494397917
 97
       10
330
3A6
330
376
330
375
330
378
330
3A1
330
3A2
330
377
330
3A3
330
3A4
330
3A5
 75
     1
 76
     0
 52
45.0
 41
0.1
 77
     0
 78
     1
 53
45.0
 43
0.0
 44
0.0
 45
-0.0707106781186548
 46
0.0707106781186548
 79
     0
 98
        1
 10
0.0
 20
0.0
  0
HATCH
  5
42E
330
71
100
AcDbEntity
  8
1
  6
Continuous
 62
     2
100
AcDbHatch
 10
0.0
 20
0.0
 30
0.0
210
0.0
220
0.0
230
1.0
  2
_USER
 70
     0
 71
     1
 91
        1
 92
        1
 93
       10
 72
     1
 10
151.0566831530038
 20
733.9538494397917
 11
149.8161787427509
 21
735.2626249499967
 72
     1
 10
149.8161787427509
 20
735.2626249499967
 11
148.6233860405833
 21
735.2626249499967
 72
     1
 10
148.6233860405833
 20
735.2626249499967
 11
148.6233860405833
 21
732.2088154261858
 72
     1
 10
148.6233860405833
 20
732.2088154261858
 11
149.8161787427509
 21
732.2088154261858
 72
     1
 10
149.8161787427509
 20
732.2088154261858
 11
149.8161787427509
 21
733.5175909363903
 72
     1
 10
149.8161787427509
 20
733.5175909363903
 11
151.0566831530038
 21
732.2088154261858
 72
     1
 10
151.0566831530038
 20
732.2088154261858
 11
152.2494758551702
 21
732.2088154261858
 72
     1
 10
152.2494758551702
 20
732.2088154261858
 11
152.2494758551702
 21
735.2626249499967
 72
     1
 10
152.2494758551702
 20
735.2626249499967
 11
151.0566831530038
 21
735.2626249499967
 72
     1
 10
151.0566831530038
 20
735.2626249499967
 11
151.0566831530038
 21
733.9538494397917
 97
       10
330
3A6
330
376
330
375
330
378
330
3A1
330
3A2
330
377
330
3A3
330
3A4
330
3A5
 75
     1
 76
     0
 52
45.0
 41
0.1
 77
     0
 78
     1
 53
45.0
 43
0.0
 44
0.0
 45
-0.0707106781186548
 46
0.0707106781186548
 79
     0
 98
        1
 10
0.0
 20
0.0
  0
HATCH
  5
42F
330
71
100
AcDbEntity
  8
1
  6
Continuous
 62
     2
100
AcDbHatch
 10
0.0
 20
0.0
 30
0.0
210
0.0
220
0.0
230
1.0
  2
_USER
 70
     0
 71
     1
 91
        1
 92
        1
 93
       10
 72
     1
 10
156.3051219734235
 20
737.313039915966
 11
155.0646175631695
 21
738.6218154261712
 72
     1
 10
155.0646175631695
 20
738.6218154261712
 11
153.871824861003
 21
738.6218154261712
 72
     1
 10
153.871824861003
 20
738.6218154261712
 11
153.871824861003
 21
735.56800590236
 72
     1
 10
153.871824861003
 20
735.56800590236
 11
155.0646175631695
 21
735.56800590236
 72
     1
 10
155.0646175631695
 20
735.56800590236
 11
155.0646175631695
 21
736.8767814125647
 72
     1
 10
155.0646175631695
 20
736.8767814125647
 11
156.3051219734235
 21
735.56800590236
 72
     1
 10
156.3051219734235
 20
735.56800590236
 11
157.4979146755901
 21
735.56800590236
 72
     1
 10
157.4979146755901
 20
735.56800590236
 11
157.4979146755901
 21
738.6218154261712
 72
     1
 10
157.4979146755901
 20
738.6218154261712
 11
156.3051219734235
 21
738.6218154261712
 72
     1
 10
156.3051219734235
 20
738.6218154261712
 11
156.3051219734235
 21
737.313039915966
 97
       10
330
3AB
330
373
330
372
330
3AC
330
371
330
3A7
330
3A8
330
3A9
330
3AA
330
374
 75
     1
 76
     0
 52
45.0
 41
0.1
 77
     0
 78
     1
 53
45.0
 43
0.0
 44
0.0
 45
-0.0707106781186548
 46
0.0707106781186548
 79
     0
 98
        1
 10
0.0
 20
0.0
  0
HATCH
  5
430
330
71
100
AcDbEntity
  8
1
  6
Continuous
 62
     2
100
AcDbHatch
 10
0.0
 20
0.0
 30
0.0
210
0.0
220
0.0
230
1.0
  2
_USER
 70
     0
 71
     1
 91
        1
 92
        1
 93
       10
 72
     1
 10
156.3051219734235
 20
737.313039915966
 11
155.0646175631695
 21
738.6218154261712
 72
     1
 10
155.0646175631695
 20
738.6218154261712
 11
153.871824861003
 21
738.6218154261712
 72
     1
 10
153.871824861003
 20
738.6218154261712
 11
153.871824861003
 21
735.56800590236
 72
     1
 10
153.871824861003
 20
735.56800590236
 11
155.0646175631695
 21
735.56800590236
 72
     1
 10
155.0646175631695
 20
735.56800590236
 11
155.0646175631695
 21
736.8767814125647
 72
     1
 10
155.0646175631695
 20
736.8767814125647
 11
156.3051219734235
 21
735.56800590236
 72
     1
 10
156.3051219734235
 20
735.56800590236
 11
157.4979146755901
 21
735.56800590236
 72
     1
 10
157.4979146755901
 20
735.56800590236
 11
157.4979146755901
 21
738.6218154261712
 72
     1
 10
157.4979146755901
 20
738.6218154261712
 11
156.3051219734235
 21
738.6218154261712
 72
     1
 10
156.3051219734235
 20
738.6218154261712
 11
156.3051219734235
 21
737.313039915966
 97
       10
330
3AB
330
373
330
372
330
3AC
330
371
330
3A7
330
3A8
330
3A9
330
3AA
330
374
 75
     1
 76
     0
 52
45.0
 41
0.1
 77
     0
 78
     1
 53
45.0
 43
0.0
 44
0.0
 45
-0.0707106781186548
 46
0.0707106781186548
 79
     0
 98
        1
 10
0.0
 20
0.0
  0
HATCH
  5
431
330
71
100
AcDbEntity
  8
1
  6
Continuous
 62
     2
100
AcDbHatch
 10
0.0
 20
0.0
 30
0.0
210
0.0
220
0.0
230
1.0
  2
_USER
 70
     0
 71
     1
 91
        1
 92
        1
 93
        8
 72
     1
 10
155.207601756544
 20
735.2626249499967
 11
152.3926109794303
 21
735.2626249499967
 72
     1
 10
152.3926109794303
 20
735.2626249499967
 11
152.3926109794303
 21
734.4773596438732
 72
     1
 10
152.3926109794303
 20
734.4773596438732
 11
153.203710016905
 21
734.4773596438732
 72
     1
 10
153.203710016905
 20
734.4773596438732
 11
153.203710016905
 21
732.2088154261858
 72
     1
 10
153.203710016905
 20
732.2088154261858
 11
154.3965027190715
 21
732.2088154261858
 72
     1
 10
154.3965027190715
 20
732.2088154261858
 11
154.3965027190715
 21
734.4773596438732
 72
     1
 10
154.3965027190715
 20
734.4773596438732
 11
155.207601756544
 21
734.4773596438732
 72
     1
 10
155.207601756544
 20
734.4773596438732
 11
155.207601756544
 21
735.2626249499967
 97
        8
330
36D
330
3AD
330
36C
330
3AE
330
3AF
330
370
330
36F
330
36E
 75
     1
 76
     0
 52
45.0
 41
0.1
 77
     0
 78
     1
 53
45.0
 43
0.0
 44
0.0
 45
-0.0707106781186548
 46
0.0707106781186548
 79
     0
 98
        1
 10
0.0
 20
0.0
  0
HATCH
  5
432
330
71
100
AcDbEntity
  8
1
  6
Continuous
 62
     2
100
AcDbHatch
 10
0.0
 20
0.0
 30
0.0
210
0.0
220
0.0
230
1.0
  2
_USER
 70
     0
 71
     1
 91
        1
 92
        1
 93
        8
 72
     1
 10
155.207601756544
 20
735.2626249499967
 11
152.3926109794303
 21
735.2626249499967
 72
     1
 10
152.3926109794303
 20
735.2626249499967
 11
152.3926109794303
 21
734.4773596438732
 72
     1
 10
152.3926109794303
 20
734.4773596438732
 11
153.203710016905
 21
734.4773596438732
 72
     1
 10
153.203710016905
 20
734.4773596438732
 11
153.203710016905
 21
732.2088154261858
 72
     1
 10
153.203710016905
 20
732.2088154261858
 11
154.3965027190715
 21
732.2088154261858
 72
     1
 10
154.3965027190715
 20
732.2088154261858
 11
154.3965027190715
 21
734.4773596438732
 72
     1
 10
154.3965027190715
 20
734.4773596438732
 11
155.207601756544
 21
734.4773596438732
 72
     1
 10
155.207601756544
 20
734.4773596438732
 11
155.207601756544
 21
735.2626249499967
 97
        8
330
36D
330
3AD
330
36C
330
3AE
330
3AF
330
370
330
36F
330
36E
 75
     1
 76
     0
 52
45.0
 41
0.1
 77
     0
 78
     1
 53
45.0
 43
0.0
 44
0.0
 45
-0.0707106781186548
 46
0.0707106781186548
 79
     0
 98
        1
 10
0.0
 20
0.0
  0
HATCH
  5
433
330
71
100
AcDbEntity
  8
1
  6
Continuous
 62
     2
100
AcDbHatch
 10
0.0
 20
0.0
 30
0.0
210
0.0
220
0.0
230
1.0
  2
_USER
 70
     0
 71
     1
 91
        2
 92
        1
 93
        8
 72
     1
 10
157.346029212491
 20
732.2088154261858
 11
157.1345491590152
 21
732.7497759704036
 72
     1
 10
157.1345491590152
 20
732.7497759704036
 11
156.0021075823414
 21
732.7497759704036
 72
     1
 10
156.0021075823414
 20
732.7497759704036
 11
155.7906275288655
 21
732.2088154261858
 72
     1
 10
155.7906275288655
 20
732.2088154261858
 11
154.5501231186126
 21
732.2088154261858
 72
     1
 10
154.5501231186126
 20
732.2088154261858
 11
155.9480761655519
 21
735.2626249499967
 72
     1
 10
155.9480761655519
 20
735.2626249499967
 11
157.1885805758046
 21
735.2626249499967
 72
     1
 10
157.1885805758046
 20
735.2626249499967
 11
158.5865336227449
 21
732.2088154261858
 72
     1
 10
158.5865336227449
 20
732.2088154261858
 11
157.346029212491
 21
732.2088154261858
 97
        8
330
3B1
330
3B2
330
369
330
3B3
330
368
330
36B
330
3B0
330
36A
 92
       16
 93
        3
 72
     1
 10
156.2681631334864
 20
733.4303392357102
 11
156.5683283706788
 21
734.1981542016969
 72
     1
 10
156.5683283706788
 20
734.1981542016969
 11
156.8684936078689
 21
733.4303392357102
 72
     1
 10
156.8684936078689
 20
733.4303392357102
 11
156.2681631334864
 21
733.4303392357102
 97
        3
330
367
330
3B5
330
3B4
 75
     1
 76
     0
 52
45.0
 41
0.1
 77
     0
 78
     1
 53
45.0
 43
0.0
 44
0.0
 45
-0.0707106781186548
 46
0.0707106781186548
 79
     0
 98
        1
 10
0.0
 20
0.0
  0
HATCH
  5
434
330
71
100
AcDbEntity
  8
1
  6
Continuous
 62
     2
100
AcDbHatch
 10
0.0
 20
0.0
 30
0.0
210
0.0
220
0.0
230
1.0
  2
_USER
 70
     0
 71
     1
 91
        2
 92
        1
 93
        8
 72
     1
 10
157.346029212491
 20
732.2088154261858
 11
157.1345491590152
 21
732.7497759704036
 72
     1
 10
157.1345491590152
 20
732.7497759704036
 11
156.0021075823414
 21
732.7497759704036
 72
     1
 10
156.0021075823414
 20
732.7497759704036
 11
155.7906275288655
 21
732.2088154261858
 72
     1
 10
155.7906275288655
 20
732.2088154261858
 11
154.5501231186126
 21
732.2088154261858
 72
     1
 10
154.5501231186126
 20
732.2088154261858
 11
155.9480761655519
 21
735.2626249499967
 72
     1
 10
155.9480761655519
 20
735.2626249499967
 11
157.1885805758046
 21
735.2626249499967
 72
     1
 10
157.1885805758046
 20
735.2626249499967
 11
158.5865336227449
 21
732.2088154261858
 72
     1
 10
158.5865336227449
 20
732.2088154261858
 11
157.346029212491
 21
732.2088154261858
 97
        8
330
3B1
330
3B2
330
369
330
3B3
330
368
330
36B
330
3B0
330
36A
 92
       16
 93
        3
 72
     1
 10
156.2681631334864
 20
733.4303392357102
 11
156.5683283706788
 21
734.1981542016969
 72
     1
 10
156.5683283706788
 20
734.1981542016969
 11
156.8684936078689
 21
733.4303392357102
 72
     1
 10
156.8684936078689
 20
733.4303392357102
 11
156.2681631334864
 21
733.4303392357102
 97
        3
330
367
330
3B5
330
3B4
 75
     1
 76
     0
 52
45.0
 41
0.1
 77
     0
 78
     1
 53
45.0
 43
0.0
 44
0.0
 45
-0.0707106781186548
 46
0.0707106781186548
 79
     0
 98
        1
 10
0.0
 20
0.0
  0
HATCH
  5
435
330
71
100
AcDbEntity
  8
1
  6
Continuous
 62
     2
100
AcDbHatch
 10
0.0
 20
0.0
 30
0.0
210
0.0
220
0.0
230
1.0
  2
_USER
 70
     0
 71
     1
 91
        1
 92
        1
 93
        4
 72
     1
 10
158.9769776262769
 20
735.56800590236
 11
157.736473216024
 21
735.56800590236
 72
     1
 10
157.736473216024
 20
735.56800590236
 11
157.736473216024
 21
738.6218154261712
 72
     1
 10
157.736473216024
 20
738.6218154261712
 11
158.9769776262769
 21
738.6218154261712
 72
     1
 10
158.9769776262769
 20
738.6218154261712
 11
158.9769776262769
 21
735.56800590236
 97
        4
330
364
330
366
330
3B6
330
365
 75
     1
 76
     0
 52
45.0
 41
0.1
 77
     0
 78
     1
 53
45.0
 43
0.0
 44
0.0
 45
-0.0707106781186548
 46
0.0707106781186548
 79
     0
 98
        1
 10
0.0
 20
0.0
  0
HATCH
  5
436
330
71
100
AcDbEntity
  8
1
  6
Continuous
 62
     2
100
AcDbHatch
 10
0.0
 20
0.0
 30
0.0
210
0.0
220
0.0
230
1.0
  2
_USER
 70
     0
 71
     1
 91
        1
 92
        1
 93
        4
 72
     1
 10
158.9769776262769
 20
735.56800590236
 11
157.736473216024
 21
735.56800590236
 72
     1
 10
157.736473216024
 20
735.56800590236
 11
157.736473216024
 21
738.6218154261712
 72
     1
 10
157.736473216024
 20
738.6218154261712
 11
158.9769776262769
 21
738.6218154261712
 72
     1
 10
158.9769776262769
 20
738.6218154261712
 11
158.9769776262769
 21
735.56800590236
 97
        4
330
364
330
366
330
3B6
330
365
 75
     1
 76
     0
 52
45.0
 41
0.1
 77
     0
 78
     1
 53
45.0
 43
0.0
 44
0.0
 45
-0.0707106781186548
 46
0.0707106781186548
 79
     0
 98
        1
 10
0.0
 20
0.0
  0
HATCH
  5
437
330
71
100
AcDbEntity
  8
1
  6
Continuous
 62
     2
100
AcDbHatch
 10
0.0
 20
0.0
 30
0.0
210
0.0
220
0.0
230
1.0
  2
_USER
 70
     0
 71
     1
 91
        1
 92
        1
 93
       12
 72
     1
 10
163.1994637919477
 20
738.6218154261712
 11
161.8969341611812
 21
737.148864896135
 72
     1
 10
161.8969341611812
 20
737.148864896135
 11
163.2948872081215
 21
735.56800590236
 72
     1
 10
163.2948872081215
 20
735.56800590236
 11
161.8921629903732
 21
735.56800590236
 72
     1
 10
161.8921629903732
 20
735.56800590236
 11
161.1955720523077
 21
736.3557376876537
 72
     1
 10
161.1955720523077
 20
736.3557376876537
 11
160.498981114242
 21
735.56800590236
 72
     1
 10
160.498981114242
 20
735.56800590236
 11
159.0962568964937
 21
735.56800590236
 72
     1
 10
159.0962568964937
 20
735.56800590236
 11
160.494209943434
 21
737.148864896135
 72
     1
 10
160.494209943434
 20
737.148864896135
 11
159.1916803126666
 21
738.6218154261712
 72
     1
 10
159.1916803126666
 20
738.6218154261712
 11
160.5944045304159
 21
738.6218154261712
 72
     1
 10
160.5944045304159
 20
738.6218154261712
 11
161.1955720523077
 21
737.9419921046157
 72
     1
 10
161.1955720523077
 20
737.9419921046157
 11
161.7967395742004
 21
738.6218154261712
 72
     1
 10
161.7967395742004
 20
738.6218154261712
 11
163.1994637919477
 21
738.6218154261712
 97
       12
330
35F
330
35E
330
35D
330
3BA
330
3BB
330
3B7
330
3B8
330
363
330
362
330
361
330
360
330
3B9
 75
     1
 76
     0
 52
45.0
 41
0.1
 77
     0
 78
     1
 53
45.0
 43
0.0
 44
0.0
 45
-0.0707106781186548
 46
0.0707106781186548
 79
     0
 98
        1
 10
0.0
 20
0.0
  0
HATCH
  5
438
330
71
100
AcDbEntity
  8
1
  6
Continuous
 62
     2
100
AcDbHatch
 10
0.0
 20
0.0
 30
0.0
210
0.0
220
0.0
230
1.0
  2
_USER
 70
     0
 71
     1
 91
        1
 92
        1
 93
       12
 72
     1
 10
163.1994637919477
 20
738.6218154261712
 11
161.8969341611812
 21
737.148864896135
 72
     1
 10
161.8969341611812
 20
737.148864896135
 11
163.2948872081215
 21
735.56800590236
 72
     1
 10
163.2948872081215
 20
735.56800590236
 11
161.8921629903732
 21
735.56800590236
 72
     1
 10
161.8921629903732
 20
735.56800590236
 11
161.1955720523077
 21
736.3557376876537
 72
     1
 10
161.1955720523077
 20
736.3557376876537
 11
160.498981114242
 21
735.56800590236
 72
     1
 10
160.498981114242
 20
735.56800590236
 11
159.0962568964937
 21
735.56800590236
 72
     1
 10
159.0962568964937
 20
735.56800590236
 11
160.494209943434
 21
737.148864896135
 72
     1
 10
160.494209943434
 20
737.148864896135
 11
159.1916803126666
 21
738.6218154261712
 72
     1
 10
159.1916803126666
 20
738.6218154261712
 11
160.5944045304159
 21
738.6218154261712
 72
     1
 10
160.5944045304159
 20
738.6218154261712
 11
161.1955720523077
 21
737.9419921046157
 72
     1
 10
161.1955720523077
 20
737.9419921046157
 11
161.7967395742004
 21
738.6218154261712
 72
     1
 10
161.7967395742004
 20
738.6218154261712
 11
163.1994637919477
 21
738.6218154261712
 97
       12
330
35F
330
35E
330
35D
330
3BA
330
3BB
330
3B7
330
3B8
330
363
330
362
330
361
330
360
330
3B9
 75
     1
 76
     0
 52
45.0
 41
0.1
 77
     0
 78
     1
 53
45.0
 43
0.0
 44
0.0
 45
-0.0707106781186548
 46
0.0707106781186548
 79
     0
 98
        1
 10
0.0
 20
0.0
  0
HATCH
  5
439
330
71
100
AcDbEntity
  8
1
  6
Continuous
 62
     2
100
AcDbHatch
 10
0.0
 20
0.0
 30
0.0
210
0.0
220
0.0
230
1.0
  2
_USER
 70
     0
 71
     1
 91
        2
 92
        1
 93
        6
 72
     1
 10
144.1817283778017
 20
736.5110841435038
 11
143.4229607900214
 21
736.5110841435038
 72
     1
 10
143.4229607900214
 20
736.5110841435038
 11
143.4229607900214
 21
735.56800590236
 72
     1
 10
143.4229607900214
 20
735.56800590236
 11
142.1824563797673
 21
735.56800590236
 72
     1
 10
142.1824563797673
 20
735.56800590236
 11
142.1824563797673
 21
738.6218154261712
 72
     1
 10
142.1824563797673
 20
738.6218154261712
 11
144.1817283778017
 21
738.6218154261712
 72
     2
 10
144.1817283778017
 20
737.5664497848375
 40
1.055365641333651
 50
270.0
 51
450.0
 73
     0
 97
        6
330
387
330
386
330
393
330
392
330
388
330
3D8
 92
       16
 93
        4
 72
     2
 10
143.7402558515633
 20
737.60584575606
 40
0.3528638246712035
 50
270.0
 51
450.0
 73
     1
 72
     1
 10
143.7402558515633
 20
737.9587095807311
 11
143.4229607900214
 21
737.9587095807311
 72
     1
 10
143.4229607900214
 20
737.9587095807311
 11
143.4229607900214
 21
737.2529819313888
 72
     1
 10
143.4229607900214
 20
737.2529819313888
 11
143.7402558515633
 21
737.2529819313888
 97
        4
330
3EC
330
384
330
394
330
385
 75
     1
 76
     0
 52
45.0
 41
0.1
 77
     0
 78
     1
 53
45.0
 43
0.0
 44
0.0
 45
-0.0707106781186548
 46
0.0707106781186548
 79
     0
 98
        1
 10
0.0
 20
0.0
  0
HATCH
  5
43A
330
71
100
AcDbEntity
  8
1
  6
Continuous
 62
     2
100
AcDbHatch
 10
0.0
 20
0.0
 30
0.0
210
0.0
220
0.0
230
1.0
  2
_USER
 70
     0
 71
     1
 91
        2
 92
        1
 93
        6
 72
     1
 10
144.1817283778017
 20
736.5110841435038
 11
143.4229607900214
 21
736.5110841435038
 72
     1
 10
143.4229607900214
 20
736.5110841435038
 11
143.4229607900214
 21
735.56800590236
 72
     1
 10
143.4229607900214
 20
735.56800590236
 11
142.1824563797673
 21
735.56800590236
 72
     1
 10
142.1824563797673
 20
735.56800590236
 11
142.1824563797673
 21
738.6218154261712
 72
     1
 10
142.1824563797673
 20
738.6218154261712
 11
144.1817283778017
 21
738.6218154261712
 72
     2
 10
144.1817283778017
 20
737.5664497848375
 40
1.055365641333651
 50
270.0
 51
450.0
 73
     0
 97
        6
330
387
330
386
330
393
330
392
330
388
330
3D8
 92
       16
 93
        4
 72
     2
 10
143.7402558515633
 20
737.60584575606
 40
0.3528638246712035
 50
270.0
 51
450.0
 73
     1
 72
     1
 10
143.7402558515633
 20
737.9587095807311
 11
143.4229607900214
 21
737.9587095807311
 72
     1
 10
143.4229607900214
 20
737.9587095807311
 11
143.4229607900214
 21
737.2529819313888
 72
     1
 10
143.4229607900214
 20
737.2529819313888
 11
143.7402558515633
 21
737.2529819313888
 97
        4
330
3EC
330
384
330
394
330
385
 75
     1
 76
     0
 52
45.0
 41
0.1
 77
     0
 78
     1
 53
45.0
 43
0.0
 44
0.0
 45
-0.0707106781186548
 46
0.0707106781186548
 79
     0
 98
        1
 10
0.0
 20
0.0
  0
HATCH
  5
43B
330
71
100
AcDbEntity
  8
1
  6
Continuous
 62
     2
100
AcDbHatch
 10
0.0
 20
0.0
 30
0.0
210
0.0
220
0.0
230
1.0
  2
_USER
 70
     0
 71
     1
 91
        2
 92
        1
 93
        4
 72
     2
 10
146.7382711261608
 20
733.1971451777882
 40
2.065479772208543
 50
62.451851824306
 51
117.5481481756674
 73
     1
 72
     2
 10
146.4573312343275
 20
733.735720188091
 40
1.458034083651478
 50
117.5481481756639
 51
242.451851824336
 73
     1
 72
     2
 10
146.7382711261608
 20
734.2742951983943
 40
2.065479772208446
 50
242.4518518243384
 51
297.5481481756882
 73
     1
 72
     2
 10
147.0192110179941
 20
733.735720188091
 40
1.458034083651977
 50
297.5481481757016
 51
422.4518518242985
 73
     1
 97
        4
330
3E4
330
3E3
330
3E5
330
3E2
 92
       16
 93
        4
 72
     2
 10
146.5385310898143
 20
733.735720188091
 40
0.7717997786797746
 50
321.8795802028411
 51
398.1204197971524
 73
     1
 72
     2
 10
146.7382711261608
 20
733.8924513662115
 40
0.5179085730133126
 50
38.12041979715392
 51
141.8795802028558
 73
     1
 72
     2
 10
146.9380111625069
 20
733.735720188091
 40
0.7717997786795031
 50
141.879580202836
 51
218.1204197971707
 73
     1
 72
     2
 10
146.7382711261608
 20
733.578989009971
 40
0.5179085730137754
 50
218.1204197971937
 51
321.8795802027966
 73
     1
 97
        4
330
400
330
3FD
330
3FE
330
3FF
 75
     1
 76
     0
 52
45.0
 41
0.1
 77
     0
 78
     1
 53
45.0
 43
0.0
 44
0.0
 45
-0.0707106781186548
 46
0.0707106781186548
 79
     0
 98
        1
 10
0.0
 20
0.0
  0
HATCH
  5
43C
330
71
100
AcDbEntity
  8
1
  6
Continuous
 62
     2
100
AcDbHatch
 10
0.0
 20
0.0
 30
0.0
210
0.0
220
0.0
230
1.0
  2
_USER
 70
     0
 71
     1
 91
        2
 92
        1
 93
        4
 72
     2
 10
146.7382711261608
 20
733.1971451777882
 40
2.065479772208543
 50
62.451851824306
 51
117.5481481756674
 73
     1
 72
     2
 10
146.4573312343275
 20
733.735720188091
 40
1.458034083651478
 50
117.5481481756639
 51
242.451851824336
 73
     1
 72
     2
 10
146.7382711261608
 20
734.2742951983943
 40
2.065479772208446
 50
242.4518518243384
 51
297.5481481756882
 73
     1
 72
     2
 10
147.0192110179941
 20
733.735720188091
 40
1.458034083651977
 50
297.5481481757016
 51
422.4518518242985
 73
     1
 97
        4
330
3E4
330
3E3
330
3E5
330
3E2
 92
       16
 93
        4
 72
     2
 10
146.5385310898143
 20
733.735720188091
 40
0.7717997786797746
 50
321.8795802028411
 51
398.1204197971524
 73
     1
 72
     2
 10
146.7382711261608
 20
733.8924513662115
 40
0.5179085730133126
 50
38.12041979715392
 51
141.8795802028558
 73
     1
 72
     2
 10
146.9380111625069
 20
733.735720188091
 40
0.7717997786795031
 50
141.879580202836
 51
218.1204197971707
 73
     1
 72
     2
 10
146.7382711261608
 20
733.578989009971
 40
0.5179085730137754
 50
218.1204197971937
 51
321.8795802027966
 73
     1
 97
        4
330
400
330
3FD
330
3FE
330
3FF
 75
     1
 76
     0
 52
45.0
 41
0.1
 77
     0
 78
     1
 53
45.0
 43
0.0
 44
0.0
 45
-0.0707106781186548
 46
0.0707106781186548
 79
     0
 98
        1
 10
0.0
 20
0.0
  0
HATCH
  5
43D
330
71
100
AcDbEntity
  8
1
  6
Continuous
 62
     2
100
AcDbHatch
 10
0.0
 20
0.0
 30
0.0
210
0.0
220
0.0
230
1.0
  2
_USER
 70
     0
 71
     1
 91
        2
 92
        1
 93
       12
 72
     1
 10
153.63326632057
 20
737.9238018207282
 11
152.2973384941424
 21
737.9238018207282
 72
     1
 10
152.2973384941424
 20
737.9238018207282
 11
152.2973384941424
 21
737.4439174669865
 72
     1
 10
152.2973384941424
 20
737.4439174669865
 11
153.63326632057
 21
737.4439174669865
 72
     1
 10
153.63326632057
 20
737.4439174669865
 11
153.63326632057
 21
736.7459038615442
 72
     1
 10
153.63326632057
 20
736.7459038615442
 11
152.2973384941424
 21
736.7459038615442
 72
     1
 10
152.2973384941424
 20
736.7459038615442
 11
152.2973384941424
 21
736.2660195078025
 72
     1
 10
152.2973384941424
 20
736.2660195078025
 11
153.63326632057
 21
736.2660195078025
 72
     1
 10
153.63326632057
 20
736.2660195078025
 11
153.63326632057
 21
735.56800590236
 72
     1
 10
153.63326632057
 20
735.56800590236
 11
150.4829465967891
 21
735.56800590236
 72
     2
 10
150.4829465967891
 20
737.0949106642653
 40
1.526904761905939
 50
90.0
 51
270.0
 73
     0
 72
     1
 10
150.4829465967891
 20
738.6218154261712
 11
153.63326632057
 21
738.6218154261712
 72
     1
 10
153.63326632057
 20
738.6218154261712
 11
153.63326632057
 21
737.9238018207282
 97
       12
330
39B
330
3ED
330
39C
330
39D
330
39E
330
39F
330
37C
330
37B
330
37A
330
379
330
3A0
330
39A
 92
       16
 93
        4
 72
     2
 10
150.6992186069543
 20
737.2516418423858
 40
0.5179085730135616
 50
38.12041979714829
 51
141.879580202844
 73
     1
 72
     2
 10
150.8989586433006
 20
737.0949106642653
 40
0.7717997786797075
 50
141.8795802028371
 51
218.1204197971562
 73
     1
 72
     2
 10
150.6992186069543
 20
736.9381794861449
 40
0.5179085730134722
 50
218.120419797156
 51
321.8795802028517
 73
     1
 72
     2
 10
150.4994785706081
 20
737.0949106642653
 40
0.7717997786796597
 50
321.879580202845
 51
398.1204197971616
 73
     1
 97
        4
330
3E7
330
3E6
330
3E1
330
3E0
 75
     1
 76
     0
 52
45.0
 41
0.1
 77
     0
 78
     1
 53
45.0
 43
0.0
 44
0.0
 45
-0.0707106781186548
 46
0.0707106781186548
 79
     0
 98
        1
 10
0.0
 20
0.0
  0
HATCH
  5
43E
330
71
100
AcDbEntity
  8
1
  6
Continuous
 62
     2
100
AcDbHatch
 10
0.0
 20
0.0
 30
0.0
210
0.0
220
0.0
230
1.0
  2
_USER
 70
     0
 71
     1
 91
        2
 92
        1
 93
       12
 72
     1
 10
153.63326632057
 20
737.9238018207282
 11
152.2973384941424
 21
737.9238018207282
 72
     1
 10
152.2973384941424
 20
737.9238018207282
 11
152.2973384941424
 21
737.4439174669865
 72
     1
 10
152.2973384941424
 20
737.4439174669865
 11
153.63326632057
 21
737.4439174669865
 72
     1
 10
153.63326632057
 20
737.4439174669865
 11
153.63326632057
 21
736.7459038615442
 72
     1
 10
153.63326632057
 20
736.7459038615442
 11
152.2973384941424
 21
736.7459038615442
 72
     1
 10
152.2973384941424
 20
736.7459038615442
 11
152.2973384941424
 21
736.2660195078025
 72
     1
 10
152.2973384941424
 20
736.2660195078025
 11
153.63326632057
 21
736.2660195078025
 72
     1
 10
153.63326632057
 20
736.2660195078025
 11
153.63326632057
 21
735.56800590236
 72
     1
 10
153.63326632057
 20
735.56800590236
 11
150.4829465967891
 21
735.56800590236
 72
     2
 10
150.4829465967891
 20
737.0949106642653
 40
1.526904761905939
 50
90.0
 51
270.0
 73
     0
 72
     1
 10
150.4829465967891
 20
738.6218154261712
 11
153.63326632057
 21
738.6218154261712
 72
     1
 10
153.63326632057
 20
738.6218154261712
 11
153.63326632057
 21
737.9238018207282
 97
       12
330
39B
330
3ED
330
39C
330
39D
330
39E
330
39F
330
37C
330
37B
330
37A
330
379
330
3A0
330
39A
 92
       16
 93
        4
 72
     2
 10
150.6992186069543
 20
737.2516418423858
 40
0.5179085730135616
 50
38.12041979714829
 51
141.879580202844
 73
     1
 72
     2
 10
150.8989586433006
 20
737.0949106642653
 40
0.7717997786797075
 50
141.8795802028371
 51
218.1204197971562
 73
     1
 72
     2
 10
150.6992186069543
 20
736.9381794861449
 40
0.5179085730134722
 50
218.120419797156
 51
321.8795802028517
 73
     1
 72
     2
 10
150.4994785706081
 20
737.0949106642653
 40
0.7717997786796597
 50
321.879580202845
 51
398.1204197971616
 73
     1
 97
        4
330
3E7
330
3E6
330
3E1
330
3E0
 75
     1
 76
     0
 52
45.0
 41
0.1
 77
     0
 78
     1
 53
45.0
 43
0.0
 44
0.0
 45
-0.0707106781186548
 46
0.0707106781186548
 79
     0
 98
        1
 10
0.0
 20
0.0
  0
HATCH
  5
43F
330
71
100
AcDbEntity
  8
1
  6
Continuous
 62
     2
100
AcDbHatch
 10
0.0
 20
0.0
 30
0.0
210
0.0
220
0.0
230
1.0
  2
_USER
 70
     0
 71
     1
 91
        4
 92
        1
 93
        8
 72
     1
 10
141.7053392989004
 20
738.1975708107692
 11
141.7053392989004
 21
732.633060041569
 72
     2
 10
141.2810946835166
 20
732.633060041569
 40
0.4242446153832589
 50
0.0
 51
90.0
 73
     0
 72
     1
 10
141.2810946835166
 20
732.2088154261858
 11
135.8077825927998
 21
732.2088154261858
 72
     2
 10
135.8077825927998
 20
732.633060041569
 40
0.4242446153828041
 50
90.0
 51
180.0
 73
     0
 72
     1
 10
135.383537977417
 20
732.633060041569
 11
135.383537977417
 21
738.1975708107692
 72
     2
 10
135.8077825927998
 20
738.1975708107692
 40
0.4242446153838273
 50
180.0
 51
270.0
 73
     0
 72
     1
 10
135.8077825927998
 20
738.621815426153
 11
141.2810946835166
 21
738.621815426153
 72
     2
 10
141.2810946835166
 20
738.1975708107692
 40
0.4242446153837989
 50
270.0
 51
360.0
 73
     0
 97
        8
330
38F
330
3DD
330
390
330
3E8
330
38D
330
3DF
330
38E
330
3DE
 92
       16
 93
        1
 72
     2
 10
138.4273682433173
 20
735.8786885824137
 40
0.4709789327785074
 50
0.0
 51
360.0
 73
     1
 97
        1
330
403
 92
       16
 93
        8
 72
     2
 10
138.9772259560779
 20
734.7695469824453
 40
0.3157169230765476
 50
115.3740086783335
 51
180.0
 73
     1
 72
     1
 10
138.6615090330012
 20
734.7695469824453
 11
138.6615090330012
 21
734.1876955757502
 72
     2
 10
138.9772259560779
 20
734.1876955757502
 40
0.3157169230766783
 50
180.0
 51
269.8110329574748
 73
     1
 72
     2
 10
138.982842091388
 20
735.8905305233192
 40
2.018561131933266
 50
269.8110329575866
 51
450.1889670424133
 73
     1
 72
     2
 10
138.9772259560779
 20
737.5933654708883
 40
0.3157169230760138
 50
90.18896704252533
 51
180.0
 73
     1
 72
     1
 10
138.6615090330012
 20
737.5933654708883
 11
138.6615090330012
 21
736.9878301823815
 72
     2
 10
138.9772259560779
 20
736.9878301823815
 40
0.3157169230766783
 50
180.0
 51
244.6259913216578
 73
     1
 72
     2
 10
138.4511832579901
 20
735.8786885824137
 40
0.9118481501444333
 50
295.3740086781925
 51
424.6259913218228
 73
     0
 97
        8
330
3F5
330
356
330
3F2
330
3F3
330
3D1
330
355
330
3F4
330
3D0
 92
       16
 93
       12
 72
     2
 10
136.4016772695462
 20
733.2370879048193
 40
0.3157169230755983
 50
180.0
 51
270.0
 73
     1
 72
     1
 10
136.4016772695462
 20
732.9213709817426
 11
137.8775105305559
 21
732.9213709817426
 72
     2
 10
137.8775105305559
 20
733.2370879048193
 40
0.3157169230767067
 50
270.0
 51
360.0
 73
     1
 72
     1
 10
138.1932274536325
 20
733.2370879048193
 11
138.1932274536325
 21
734.7678588363509
 72
     2
 10
137.8775105305559
 20
734.7678588363509
 40
0.315716923076593
 50
0.0
 51
64.80558935146468
 73
     1
 72
     2
 10
138.4000949781309
 20
735.8786885824137
 40
0.911897523557601
 50
115.1944106485154
 51
244.8055893514694
 73
     0
 72
     2
 10
137.8775105305559
 20
736.9895183284759
 40
0.3157169230761717
 50
295.1944106485354
 51
360.0
 73
     1
 72
     1
 10
138.1932274536325
 20
736.9895183284759
 11
138.1932274536325
 21
737.5935429475364
 72
     2
 10
137.8775105305559
 20
737.5935429475364
 40
0.315716923076593
 50
0.0
 51
90.0
 73
     1
 72
     1
 10
137.8775105305559
 20
737.9092598706126
 11
136.4016772695462
 21
737.9092598706126
 72
     2
 10
136.4016772695462
 20
737.5935429475364
 40
0.3157169230761383
 50
90.0
 51
180.0
 73
     1
 72
     1
 10
136.0859603464706
 20
737.5935429475364
 11
136.0859603464706
 21
733.2370879048193
 97
       12
330
3D9
330
391
330
3DC
330
38C
330
3E9
330
3EA
330
3DB
330
38B
330
3DA
330
38A
330
3EB
330
389
 75
     1
 76
     0
 52
45.0
 41
0.1
 77
     0
 78
     1
 53
45.0
 43
0.0
 44
0.0
 45
-0.0707106781186548
 46
0.0707106781186548
 79
     0
 98
        1
 10
0.0
 20
0.0
  0
HATCH
  5
440
330
71
100
AcDbEntity
  8
1
  6
Continuous
 62
     2
100
AcDbHatch
 10
0.0
 20
0.0
 30
0.0
210
0.0
220
0.0
230
1.0
  2
_USER
 70
     0
 71
     1
 91
        4
 92
        1
 93
        8
 72
     1
 10
141.7053392989004
 20
738.1975708107692
 11
141.7053392989004
 21
732.633060041569
 72
     2
 10
141.2810946835166
 20
732.633060041569
 40
0.4242446153832589
 50
0.0
 51
90.0
 73
     0
 72
     1
 10
141.2810946835166
 20
732.2088154261858
 11
135.8077825927998
 21
732.2088154261858
 72
     2
 10
135.8077825927998
 20
732.633060041569
 40
0.4242446153828041
 50
90.0
 51
180.0
 73
     0
 72
     1
 10
135.383537977417
 20
732.633060041569
 11
135.383537977417
 21
738.1975708107692
 72
     2
 10
135.8077825927998
 20
738.1975708107692
 40
0.4242446153838273
 50
180.0
 51
270.0
 73
     0
 72
     1
 10
135.8077825927998
 20
738.621815426153
 11
141.2810946835166
 21
738.621815426153
 72
     2
 10
141.2810946835166
 20
738.1975708107692
 40
0.4242446153837989
 50
270.0
 51
360.0
 73
     0
 97
        8
330
38F
330
3DD
330
390
330
3E8
330
38D
330
3DF
330
38E
330
3DE
 92
       16
 93
        1
 72
     2
 10
138.4273682433173
 20
735.8786885824137
 40
0.4709789327785074
 50
0.0
 51
360.0
 73
     1
 97
        1
330
403
 92
       16
 93
        8
 72
     2
 10
138.9772259560779
 20
734.7695469824453
 40
0.3157169230765476
 50
115.3740086783335
 51
180.0
 73
     1
 72
     1
 10
138.6615090330012
 20
734.7695469824453
 11
138.6615090330012
 21
734.1876955757502
 72
     2
 10
138.9772259560779
 20
734.1876955757502
 40
0.3157169230766783
 50
180.0
 51
269.8110329574748
 73
     1
 72
     2
 10
138.982842091388
 20
735.8905305233192
 40
2.018561131933266
 50
269.8110329575866
 51
450.1889670424133
 73
     1
 72
     2
 10
138.9772259560779
 20
737.5933654708883
 40
0.3157169230760138
 50
90.18896704252533
 51
180.0
 73
     1
 72
     1
 10
138.6615090330012
 20
737.5933654708883
 11
138.6615090330012
 21
736.9878301823815
 72
     2
 10
138.9772259560779
 20
736.9878301823815
 40
0.3157169230766783
 50
180.0
 51
244.6259913216578
 73
     1
 72
     2
 10
138.4511832579901
 20
735.8786885824137
 40
0.9118481501444333
 50
295.3740086781925
 51
424.6259913218228
 73
     0
 97
        8
330
3F5
330
356
330
3F2
330
3F3
330
3D1
330
355
330
3F4
330
3D0
 92
       16
 93
       12
 72
     2
 10
136.4016772695462
 20
733.2370879048193
 40
0.3157169230755983
 50
180.0
 51
270.0
 73
     1
 72
     1
 10
136.4016772695462
 20
732.9213709817426
 11
137.8775105305559
 21
732.9213709817426
 72
     2
 10
137.8775105305559
 20
733.2370879048193
 40
0.3157169230767067
 50
270.0
 51
360.0
 73
     1
 72
     1
 10
138.1932274536325
 20
733.2370879048193
 11
138.1932274536325
 21
734.7678588363509
 72
     2
 10
137.8775105305559
 20
734.7678588363509
 40
0.315716923076593
 50
0.0
 51
64.80558935146468
 73
     1
 72
     2
 10
138.4000949781309
 20
735.8786885824137
 40
0.911897523557601
 50
115.1944106485154
 51
244.8055893514694
 73
     0
 72
     2
 10
137.8775105305559
 20
736.9895183284759
 40
0.3157169230761717
 50
295.1944106485354
 51
360.0
 73
     1
 72
     1
 10
138.1932274536325
 20
736.9895183284759
 11
138.1932274536325
 21
737.5935429475364
 72
     2
 10
137.8775105305559
 20
737.5935429475364
 40
0.315716923076593
 50
0.0
 51
90.0
 73
     1
 72
     1
 10
137.8775105305559
 20
737.9092598706126
 11
136.4016772695462
 21
737.9092598706126
 72
     2
 10
136.4016772695462
 20
737.5935429475364
 40
0.3157169230761383
 50
90.0
 51
180.0
 73
     1
 72
     1
 10
136.0859603464706
 20
737.5935429475364
 11
136.0859603464706
 21
733.2370879048193
 97
       12
330
3D9
330
391
330
3DC
330
38C
330
3E9
330
3EA
330
3DB
330
38B
330
3DA
330
38A
330
3EB
330
389
 75
     1
 76
     0
 52
45.0
 41
0.1
 77
     0
 78
     1
 53
45.0
 43
0.0
 44
0.0
 45
-0.0707106781186548
 46
0.0707106781186548
 79
     0
 98
        1
 10
0.0
 20
0.0
  0
HATCH
  5
441
330
71
100
AcDbEntity
  8
1
  6
Continuous
 62
     2
100
AcDbHatch
 10
0.0
 20
0.0
 30
0.0
210
0.0
220
0.0
230
1.0
  2
_USER
 70
     0
 71
     1
 91
        1
 92
        1
 93
       18
 72
     1
 10
163.2948872081215
 20
734.4773596438732
 11
162.4837881706481
 21
734.4773596438732
 72
     1
 10
162.4837881706481
 20
734.4773596438732
 11
162.4837881706481
 21
732.2088154261858
 72
     1
 10
162.4837881706481
 20
732.2088154261858
 11
161.2909954684804
 21
732.2088154261858
 72
     1
 10
161.2909954684804
 20
732.2088154261858
 11
161.2909954684804
 21
734.4773596438732
 72
     1
 10
161.2909954684804
 20
734.4773596438732
 11
160.1873561689123
 21
734.4773596438732
 72
     2
 10
160.1873561689123
 20
733.5228366370471
 40
0.9545230068260935
 50
90.0
 51
109.3371432194304
 73
     1
 72
     2
 10
160.0406861708086
 20
733.94079161743
 40
0.5115800601944143
 50
109.3371432194853
 51
151.4785267424197
 73
     1
 72
     2
 10
160.4180434288899
 20
733.735720188091
 40
0.9410597353348061
 50
151.4785267423576
 51
208.5214732576728
 73
     1
 72
     2
 10
160.0406861708086
 20
733.5306487587525
 40
0.5115800601959944
 50
208.521473257681
 51
246.6277221118424
 73
     1
 72
     2
 10
160.1971262035117
 20
733.8926407774625
 40
0.9059297849852166
 50
246.6277221118185
 51
288.4480761180846
 73
     1
 72
     2
 10
159.7789584698498
 20
735.1461865534991
 40
2.227384008972719
 50
288.4480761181337
 51
301.9309089499395
 73
     1
 72
     1
 10
160.9570135118737
 20
733.2558358343493
 11
160.9570135118737
 21
732.383318827546
 72
     2
 10
159.621085594757
 20
737.0484011333474
 40
4.852596863498822
 50
74.0200087416617
 51
84.84185523036402
 73
     0
 72
     2
 10
159.9099416894928
 20
733.8485105501259
 40
1.639695123940531
 50
84.84185523032396
 51
164.9381082228996
 73
     0
 72
     2
 10
159.4908138460312
 20
733.735720188091
 40
1.20565616839307
 50
164.9381082229064
 51
195.0618917770936
 73
     0
 72
     2
 10
159.9099416894928
 20
733.6229298260561
 40
1.639695123940214
 50
195.0618917771043
 51
270.0
 73
     0
 72
     1
 10
159.9099416894928
 20
735.2626249499963
 11
163.2948872081215
 21
735.2626249499967
 72
     1
 10
163.2948872081215
 20
735.2626249499967
 11
163.2948872081215
 21
734.4773596438732
 97
       18
330
358
330
3EE
330
3EF
330
3D7
330
3D6
330
3BC
330
3D5
330
3D4
330
3F0
330
3D3
330
3F1
330
3D2
330
3BD
330
357
330
35C
330
35B
330
35A
330
359
 75
     1
 76
     0
 52
45.0
 41
0.1
 77
     0
 78
     1
 53
45.0
 43
0.0
 44
0.0
 45
-0.0707106781186548
 46
0.0707106781186548
 79
     0
 98
        1
 10
0.0
 20
0.0
  0
HATCH
  5
442
330
71
100
AcDbEntity
  8
1
  6
Continuous
 62
     2
100
AcDbHatch
 10
0.0
 20
0.0
 30
0.0
210
0.0
220
0.0
230
1.0
  2
_USER
 70
     0
 71
     1
 91
        1
 92
        1
 93
       18
 72
     1
 10
163.2948872081215
 20
734.4773596438732
 11
162.4837881706481
 21
734.4773596438732
 72
     1
 10
162.4837881706481
 20
734.4773596438732
 11
162.4837881706481
 21
732.2088154261858
 72
     1
 10
162.4837881706481
 20
732.2088154261858
 11
161.2909954684804
 21
732.2088154261858
 72
     1
 10
161.2909954684804
 20
732.2088154261858
 11
161.2909954684804
 21
734.4773596438732
 72
     1
 10
161.2909954684804
 20
734.4773596438732
 11
160.1873561689123
 21
734.4773596438732
 72
     2
 10
160.1873561689123
 20
733.5228366370471
 40
0.9545230068260935
 50
90.0
 51
109.3371432194304
 73
     1
 72
     2
 10
160.0406861708086
 20
733.94079161743
 40
0.5115800601944143
 50
109.3371432194853
 51
151.4785267424197
 73
     1
 72
     2
 10
160.4180434288899
 20
733.735720188091
 40
0.9410597353348061
 50
151.4785267423576
 51
208.5214732576728
 73
     1
 72
     2
 10
160.0406861708086
 20
733.5306487587525
 40
0.5115800601959944
 50
208.521473257681
 51
246.6277221118424
 73
     1
 72
     2
 10
160.1971262035117
 20
733.8926407774625
 40
0.9059297849852166
 50
246.6277221118185
 51
288.4480761180846
 73
     1
 72
     2
 10
159.7789584698498
 20
735.1461865534991
 40
2.227384008972719
 50
288.4480761181337
 51
301.9309089499395
 73
     1
 72
     1
 10
160.9570135118737
 20
733.2558358343493
 11
160.9570135118737
 21
732.383318827546
 72
     2
 10
159.621085594757
 20
737.0484011333474
 40
4.852596863498822
 50
74.0200087416617
 51
84.84185523036402
 73
     0
 72
     2
 10
159.9099416894928
 20
733.8485105501259
 40
1.639695123940531
 50
84.84185523032396
 51
164.9381082228996
 73
     0
 72
     2
 10
159.4908138460312
 20
733.735720188091
 40
1.20565616839307
 50
164.9381082229064
 51
195.0618917770936
 73
     0
 72
     2
 10
159.9099416894928
 20
733.6229298260561
 40
1.639695123940214
 50
195.0618917771043
 51
270.0
 73
     0
 72
     1
 10
159.9099416894928
 20
735.2626249499963
 11
163.2948872081215
 21
735.2626249499967
 72
     1
 10
163.2948872081215
 20
735.2626249499967
 11
163.2948872081215
 21
734.4773596438732
 97
       18
330
358
330
3EE
330
3EF
330
3D7
330
3D6
330
3BC
330
3D5
330
3D4
330
3F0
330
3D3
330
3F1
330
3D2
330
3BD
330
357
330
35C
330
35B
330
35A
330
359
 75
     1
 76
     0
 52
45.0
 41
0.1
 77
     0
 78
     1
 53
45.0
 43
0.0
 44
0.0
 45
-0.0707106781186548
 46
0.0707106781186548
 79
     0
 98
        1
 10
0.0
 20
0.0
  0
HATCH
  5
443
330
71
100
AcDbEntity
  8
1
  6
Continuous
 62
     2
100
AcDbHatch
 10
0.0
 20
0.0
 30
0.0
210
0.0
220
0.0
230
1.0
  2
_USER
 70
     0
 71
     1
 91
        1
 92
        1
 93
       14
 72
     2
 10
143.8072402102399
 20
733.6229298260561
 40
1.639695123940555
 50
84.8418552303655
 51
164.9381082228867
 73
     1
 72
     2
 10
143.3881123667771
 20
733.735720188091
 40
1.205656168390957
 50
164.9381082228794
 51
195.0618917770945
 73
     1
 72
     2
 10
143.8072402102399
 20
733.8485105501259
 40
1.639695123939422
 50
195.0618917770903
 51
275.1581447696363
 73
     1
 72
     2
 10
143.518384115504
 20
737.0484011333474
 40
4.852596863498159
 50
275.158144769624
 51
285.979991258353
 73
     1
 72
     1
 10
144.8543120326218
 20
732.3833188275466
 11
144.8543120326218
 21
733.2558358343498
 72
     2
 10
143.6762569905969
 20
735.1461865534997
 40
2.227384008972692
 50
58.06909105003973
 51
71.55192388186835
 73
     0
 72
     2
 10
144.0944247242577
 20
733.8926407774625
 40
0.905929784984867
 50
71.55192388184437
 51
113.3722778881304
 73
     0
 72
     2
 10
143.9379846915556
 20
733.5306487587525
 40
0.5115800601948284
 50
113.3722778881693
 51
151.4785267423059
 73
     0
 72
     2
 10
144.315341949636
 20
733.735720188091
 40
0.9410597353333544
 50
151.4785267422945
 51
208.5214732577298
 73
     0
 72
     2
 10
143.9379846915556
 20
733.94079161743
 40
0.5115800601948293
 50
208.521473257694
 51
246.6277221118054
 73
     0
 72
     2
 10
144.0944247242577
 20
733.5787995987193
 40
0.9059297849853588
 50
246.6277221118725
 51
288.448076118142
 73
     0
 72
     2
 10
143.6762569905969
 20
732.3252538226828
 40
2.227384008973468
 50
288.4480761181316
 51
301.9309089499603
 73
     0
 72
     1
 10
144.8543120326218
 20
734.2156045418327
 11
144.8543120326218
 21
735.088121548636
 72
     2
 10
143.518384115504
 20
730.4230392428351
 40
4.85259686349804
 50
74.02000874164729
 51
84.84185523037608
 73
     1
 97
       14
330
3F6
330
3F7
330
3F8
330
3F9
330
3BE
330
3CF
330
3CE
330
3CD
330
3FA
330
3FB
330
3CC
330
3FC
330
3BF
330
3CB
 75
     1
 76
     0
 52
45.0
 41
0.1
 77
     0
 78
     1
 53
45.0
 43
0.0
 44
0.0
 45
-0.0707106781186548
 46
0.0707106781186548
 79
     0
 98
        1
 10
0.0
 20
0.0
  0
HATCH
  5
444
330
71
100
AcDbEntity
  8
1
  6
Continuous
 62
     2
100
AcDbHatch
 10
0.0
 20
0.0
 30
0.0
210
0.0
220
0.0
230
1.0
  2
_USER
 70
     0
 71
     1
 91
        1
 92
        1
 93
       14
 72
     2
 10
143.8072402102399
 20
733.6229298260561
 40
1.639695123940555
 50
84.8418552303655
 51
164.9381082228867
 73
     1
 72
     2
 10
143.3881123667771
 20
733.735720188091
 40
1.205656168390957
 50
164.9381082228794
 51
195.0618917770945
 73
     1
 72
     2
 10
143.8072402102399
 20
733.8485105501259
 40
1.639695123939422
 50
195.0618917770903
 51
275.1581447696363
 73
     1
 72
     2
 10
143.518384115504
 20
737.0484011333474
 40
4.852596863498159
 50
275.158144769624
 51
285.979991258353
 73
     1
 72
     1
 10
144.8543120326218
 20
732.3833188275466
 11
144.8543120326218
 21
733.2558358343498
 72
     2
 10
143.6762569905969
 20
735.1461865534997
 40
2.227384008972692
 50
58.06909105003973
 51
71.55192388186835
 73
     0
 72
     2
 10
144.0944247242577
 20
733.8926407774625
 40
0.905929784984867
 50
71.55192388184437
 51
113.3722778881304
 73
     0
 72
     2
 10
143.9379846915556
 20
733.5306487587525
 40
0.5115800601948284
 50
113.3722778881693
 51
151.4785267423059
 73
     0
 72
     2
 10
144.315341949636
 20
733.735720188091
 40
0.9410597353333544
 50
151.4785267422945
 51
208.5214732577298
 73
     0
 72
     2
 10
143.9379846915556
 20
733.94079161743
 40
0.5115800601948293
 50
208.521473257694
 51
246.6277221118054
 73
     0
 72
     2
 10
144.0944247242577
 20
733.5787995987193
 40
0.9059297849853588
 50
246.6277221118725
 51
288.448076118142
 73
     0
 72
     2
 10
143.6762569905969
 20
732.3252538226828
 40
2.227384008973468
 50
288.4480761181316
 51
301.9309089499603
 73
     0
 72
     1
 10
144.8543120326218
 20
734.2156045418327
 11
144.8543120326218
 21
735.088121548636
 72
     2
 10
143.518384115504
 20
730.4230392428351
 40
4.85259686349804
 50
74.02000874164729
 51
84.84185523037608
 73
     1
 97
       14
330
3F6
330
3F7
330
3F8
330
3F9
330
3BE
330
3CF
330
3CE
330
3CD
330
3FA
330
3FB
330
3CC
330
3FC
330
3BF
330
3CB
 75
     1
 76
     0
 52
45.0
 41
0.1
 77
     0
 78
     1
 53
45.0
 43
0.0
 44
0.0
 45
-0.0707106781186548
 46
0.0707106781186548
 79
     0
 98
        1
 10
0.0
 20
0.0
  0
ENDBLK
  5
73
330
71
100
AcDbEntity
  8
0
100
AcDbBlockEnd
  0
BLOCK
  5
75
330
74
100
AcDbEntity
  8
0
100
AcDbBlockBegin
  2
_punkt
 70
     0
 10
260.6916876176044
 20
724.9153154261694
 30
0.0
  3
_punkt
  1

  0
LINE
  5
445
330
74
100
AcDbEntity
  8
1
  6
Continuous
 62
     2
100
AcDbLine
 10
260.6916876176044
 20
724.9153154261694
 30
0.0
 11
265.6916876176034
 21
724.9153154261694
 31
0.0
  0
LINE
  5
446
330
74
100
AcDbEntity
  8
1
  6
Continuous
 62
     2
100
AcDbLine
 10
260.6916876176044
 20
724.9153154261694
 30
0.0
 11
260.6916876176044
 21
719.9153154261693
 31
0.0
  0
ENDBLK
  5
76
330
74
100
AcDbEntity
  8
0
100
AcDbBlockEnd
  0
BLOCK
  5
7A
330
77
100
AcDbEntity
  8
0
100
AcDbBlockBegin
  2
A4I_CS
 70
     0
 10
260.6916876176044
 20
719.9153154261693
 30
0.0
  3
A4I_CS
  1

  0
INSERT
  5
78
330
77
100
AcDbEntity
  8
1
100
AcDbBlockReference
  2
_rahmen
 10
260.6916876176044
 20
719.9153154261693
 30
0.0
  0
INSERT
  5
79
330
77
100
AcDbEntity
  8
1
100
AcDbBlockReference
  2
_punkt
 10
260.6916876176044
 20
724.9153154261694
 30
0.0
  0
ENDBLK
  5
7B
330
77
100
AcDbEntity
  8
0
100
AcDbBlockEnd
  0
BLOCK
  5
84
330
7C
100
AcDbEntity
  8
0
100
AcDbBlockBegin
  2
1
 70
     0
 10
0.0
 20
0.0
 30
0.0
  3
1
  1

  0
INSERT
  5
7D
330
7C
100
AcDbEntity
  8
0
100
AcDbBlockReference
  2
AllgSicht1
 10
210.3768280000024
 20
800.0
 30
0.0
  0
INSERT
  5
7E
330
7C
100
AcDbEntity
  8
0
100
AcDbBlockReference
  2
Drfsicht1
 10
81.6932336044315
 20
787.3000001907299
 30
0.0
  0
INSERT
  5
7F
330
7C
100
AcDbEntity
  8
0
100
AcDbBlockReference
  2
Rckans1
 10
210.3768284552247
 20
876.4999999999999
 30
0.0
  0
INSERT
  5
80
330
7C
100
AcDbEntity
  8
0
100
AcDbBlockReference
  2
SA_Links1
 10
146.5427235633141
 20
876.4999999999999
 30
0.0
  0
INSERT
  5
81
330
7C
100
AcDbEntity
  8
0
100
AcDbBlockReference
  2
SA_Rechts1
 10
-7.47143679051577
 20
876.5
 30
0.0
  0
INSERT
  5
82
330
7C
100
AcDbEntity
  8
0
100
AcDbBlockReference
  2
Vordans1
 10
81.6932336044315
 20
876.5
 30
0.0
  0
INSERT
  5
83
330
7C
100
AcDbEntity
  8
0
100
AcDbBlockReference
  2
A4I_CS
 10
260.6916876176044
 20
719.9153154261693
 30
0.0
  0
ENDBLK
  5
85
330
7C
100
AcDbEntity
  8
0
100
AcDbBlockEnd
  0
BLOCK
  5
1D2
330
1CB
100
AcDbEntity
  8
0
100
AcDbBlockBegin
  2
*D17
 70
     1
 10
0.0
 20
0.0
 30
0.0
  3
*D17
  1

  0
LINE
  5
1CC
330
1CB
100
AcDbEntity
  8
1
  6
Continuous
 62
     2
100
AcDbLine
 10
19.73246364984849
 20
793.37499999999
 30
0.0
 11
19.73246364984849
 21
781.3749999957537
 31
0.0
  0
LINE
  5
1CD
330
1CB
100
AcDbEntity
  8
1
  6
Continuous
 62
     2
100
AcDbLine
 10
34.36710321706416
 20
793.37499999999
 30
0.0
 11
18.23246364984849
 21
793.37499999999
 31
0.0
  0
LINE
  5
1CE
330
1CB
100
AcDbEntity
  8
1
  6
Continuous
 62
     2
100
AcDbLine
 10
34.36710321706416
 20
781.3749999957537
 30
0.0
 11
18.23246364984849
 21
781.3749999957537
 31
0.0
  0
SOLID
  5
1CF
330
1CB
100
AcDbEntity
  8
1
 62
     2
100
AcDbTrace
 10
20.19324739140437
 20
789.87499999999
 30
0.0
 11
19.2716799082926
 21
789.87499999999
 31
0.0
 12
19.73246364984849
 22
793.37499999999
 32
0.0
 13
19.73246364984849
 23
793.37499999999
 33
0.0
  0
SOLID
  5
1D0
330
1CB
100
AcDbEntity
  8
1
 62
     2
100
AcDbTrace
 10
19.2716799082926
 20
784.8749999957537
 30
0.0
 11
20.19324739140438
 21
784.8749999957537
 31
0.0
 12
19.73246364984849
 22
781.3749999957537
 32
0.0
 13
19.73246364984849
 23
781.3749999957537
 33
0.0
  0
MTEXT
  5
1D1
330
1CB
100
AcDbEntity
  8
1
 62
     3
100
AcDbMText
 10
18.23246364984849
 20
785.441585644788
 30
0.0
 40
3.5
 41
0.0
 71
     7
 72
     1
  1
12
  7
CONVERTER_11
 11
0.0
 21
1.0
 31
0.0
 73
     1
 44
0.60024009603842
  0
ENDBLK
  5
1D3
330
1CB
100
AcDbEntity
  8
0
100
AcDbBlockEnd
  0
BLOCK
  5
2DE
330
2D7
100
AcDbEntity
  8
0
100
AcDbBlockBegin
  2
*D18
 70
     1
 10
0.0
 20
0.0
 30
0.0
  3
*D18
  1

  0
LINE
  5
2D8
330
2D7
100
AcDbEntity
  8
1
  6
Continuous
 62
     2
100
AcDbLine
 10
84.69500146372137
 20
843.2500128596761
 30
0.0
 11
67.19500146372104
 21
843.2500128596761
 31
0.0
  0
LINE
  5
2D9
330
2D7
100
AcDbEntity
  8
1
  6
Continuous
 62
     2
100
AcDbLine
 10
84.69500146372137
 20
857.6249971623552
 30
0.0
 11
84.69500146372137
 21
841.2500128596761
 31
0.0
  0
LINE
  5
2DA
330
2D7
100
AcDbEntity
  8
1
  6
Continuous
 62
     2
100
AcDbLine
 10
67.19500146372104
 20
858.141079693059
 30
0.0
 11
67.19500146372104
 21
841.2500128596761
 31
0.0
  0
SOLID
  5
2DB
330
2D7
100
AcDbEntity
  8
1
 62
     2
100
AcDbTrace
 10
81.19500146372137
 20
842.7892291181201
 30
0.0
 11
81.19500146372137
 21
843.710796601232
 31
0.0
 12
84.69500146372137
 22
843.2500128596761
 32
0.0
 13
84.69500146372137
 23
843.2500128596761
 33
0.0
  0
SOLID
  5
2DC
330
2D7
100
AcDbEntity
  8
1
 62
     2
100
AcDbTrace
 10
70.69500146372104
 20
843.710796601232
 30
0.0
 11
70.69500146372104
 21
842.7892291181201
 31
0.0
 12
67.19500146372104
 22
843.2500128596761
 32
0.0
 13
67.19500146372104
 23
843.2500128596761
 33
0.0
  0
MTEXT
  5
2DD
330
2D7
100
AcDbEntity
  8
1
 62
     3
100
AcDbMText
 10
70.95354614257914
 20
845.600012859676
 30
0.0
 40
3.5
 41
0.0
 71
     7
 72
     1
  1
17,5
  7
CONVERTER_11
 11
0.9999999999970619
 21
2.424068405545306E-6
 31
0.0
 73
     1
 44
0.60024009603842
  0
ENDBLK
  5
2DF
330
2D7
100
AcDbEntity
  8
0
100
AcDbBlockEnd
  0
BLOCK
  5
2E9
330
2E2
100
AcDbEntity
  8
0
100
AcDbBlockBegin
  2
*D19
 70
     1
 10
0.0
 20
0.0
 30
0.0
  3
*D19
  1

  0
LINE
  5
2E3
330
2E2
100
AcDbEntity
  8
1
  6
Continuous
 62
     2
100
AcDbLine
 10
67.19500146372107
 20
832.347468440447
 30
0.0
 11
129.0450014637213
 21
832.347468440447
 31
0.0
  0
LINE
  5
2E4
330
2E2
100
AcDbEntity
  8
1
  6
Continuous
 62
     2
100
AcDbLine
 10
67.19500146372107
 20
858.141079693059
 30
0.0
 11
67.19500146372107
 21
830.347468440447
 31
0.0
  0
LINE
  5
2E5
330
2E2
100
AcDbEntity
  8
1
  6
Continuous
 62
     2
100
AcDbLine
 10
129.0450014637213
 20
861.9060031193015
 30
0.0
 11
129.0450014637213
 21
830.347468440447
 31
0.0
  0
SOLID
  5
2E6
330
2E2
100
AcDbEntity
  8
1
 62
     2
100
AcDbTrace
 10
70.69500146372107
 20
832.8082521820029
 30
0.0
 11
70.69500146372107
 21
831.886684698891
 31
0.0
 12
67.19500146372107
 22
832.347468440447
 32
0.0
 13
67.19500146372107
 23
832.347468440447
 33
0.0
  0
SOLID
  5
2E7
330
2E2
100
AcDbEntity
  8
1
 62
     2
100
AcDbTrace
 10
125.5450014637213
 20
831.886684698891
 30
0.0
 11
125.5450014637213
 21
832.8082521820029
 31
0.0
 12
129.0450014637213
 22
832.347468440447
 32
0.0
 13
129.0450014637213
 23
832.347468440447
 33
0.0
  0
MTEXT
  5
2E8
330
2E2
100
AcDbEntity
  8
1
 62
     3
100
AcDbMText
 10
92.70878276730195
 20
834.6974684404469
 30
0.0
 40
3.5
 41
0.0
 71
     7
 72
     1
  1
61,9
  7
CONVERTER_11
 11
0.9999999999970619
 21
2.424068405545306E-6
 31
0.0
 73
     1
 44
0.60024009603842
  0
ENDBLK
  5
2EA
330
2E2
100
AcDbEntity
  8
0
100
AcDbBlockEnd
  0
BLOCK
  5
2F4
330
2ED
100
AcDbEntity
  8
0
100
AcDbBlockBegin
  2
*D20
 70
     1
 10
0.0
 20
0.0
 30
0.0
  3
*D20
  1

  0
LINE
  5
2EE
330
2ED
100
AcDbEntity
  8
1
  6
Continuous
 62
     2
100
AcDbLine
 10
34.36927522315899
 20
819.584325089555
 30
0.0
 11
129.0450014637213
 21
819.584325089555
 31
0.0
  0
LINE
  5
2EF
330
2ED
100
AcDbEntity
  8
1
  6
Continuous
 62
     2
100
AcDbLine
 10
34.36927522315899
 20
856.0954798130504
 30
0.0
 11
34.36927522315899
 21
818.084325089555
 31
0.0
  0
LINE
  5
2F0
330
2ED
100
AcDbEntity
  8
1
  6
Continuous
 62
     2
100
AcDbLine
 10
129.0450014637213
 20
861.9060031193015
 30
0.0
 11
129.0450014637213
 21
818.084325089555
 31
0.0
  0
SOLID
  5
2F1
330
2ED
100
AcDbEntity
  8
1
 62
     2
100
AcDbTrace
 10
37.86927522315899
 20
820.045108831111
 30
0.0
 11
37.86927522315899
 21
819.1235413479991
 31
0.0
 12
34.36927522315899
 22
819.584325089555
 32
0.0
 13
34.36927522315899
 23
819.584325089555
 33
0.0
  0
SOLID
  5
2F2
330
2ED
100
AcDbEntity
  8
1
 62
     2
100
AcDbTrace
 10
125.5450014637213
 20
819.1235413479991
 30
0.0
 11
125.5450014637213
 21
820.045108831111
 31
0.0
 12
129.0450014637213
 22
819.584325089555
 32
0.0
 13
129.0450014637213
 23
819.584325089555
 33
0.0
  0
MTEXT
  5
2F3
330
2ED
100
AcDbEntity
  8
1
 62
     3
100
AcDbMText
 10
78.79236808924993
 20
821.4343250895549
 30
0.0
 40
3.5
 41
0.0
 71
     7
 72
     1
  1
94,7
  7
CONVERTER_11
 11
0.9999999999970619
 21
2.424068405545306E-6
 31
0.0
 73
     1
 44
0.60024009603842
  0
ENDBLK
  5
2F5
330
2ED
100
AcDbEntity
  8
0
100
AcDbBlockEnd
  0
BLOCK
  5
2FF
330
2F8
100
AcDbEntity
  8
0
100
AcDbBlockBegin
  2
*D21
 70
     1
 10
0.0
 20
0.0
 30
0.0
  3
*D21
  1

  0
LINE
  5
2F9
330
2F8
100
AcDbEntity
  8
1
  6
Continuous
 62
     2
100
AcDbLine
 10
29.85172792991465
 20
901.1250001485131
 30
0.0
 11
29.85172792991465
 21
858.9249996485131
 31
0.0
  0
LINE
  5
2FA
330
2F8
100
AcDbEntity
  8
1
  6
Continuous
 62
     2
100
AcDbLine
 10
52.95775052468866
 20
901.1250001485131
 30
0.0
 11
28.35172792991465
 21
901.1250001485131
 31
0.0
  0
LINE
  5
2FB
330
2F8
100
AcDbEntity
  8
1
  6
Continuous
 62
     2
100
AcDbLine
 10
58.21815496372135
 20
858.9249996485131
 30
0.0
 11
28.35172792991465
 21
858.9249996485131
 31
0.0
  0
SOLID
  5
2FC
330
2F8
100
AcDbEntity
  8
1
 62
     2
100
AcDbTrace
 10
30.31251167147053
 20
897.6250001485131
 30
0.0
 11
29.39094418835877
 21
897.6250001485131
 31
0.0
 12
29.85172792991465
 22
901.1250001485131
 32
0.0
 13
29.85172792991465
 23
901.1250001485131
 33
0.0
  0
SOLID
  5
2FD
330
2F8
100
AcDbEntity
  8
1
 62
     2
100
AcDbTrace
 10
29.39094418835877
 20
862.4249996485131
 30
0.0
 11
30.31251167147054
 21
862.4249996485131
 31
0.0
 12
29.85172792991465
 22
858.9249996485131
 32
0.0
 13
29.85172792991465
 23
858.9249996485131
 33
0.0
  0
MTEXT
  5
2FE
330
2F8
100
AcDbEntity
  8
1
 62
     3
100
AcDbMText
 10
28.00172792991465
 20
875.598659082211
 30
0.0
 40
3.5
 41
0.0
 71
     7
 72
     1
  1
42,2
  7
CONVERTER_11
 11
0.0
 21
1.0
 31
0.0
 73
     1
 44
0.60024009603842
  0
ENDBLK
  5
300
330
2F8
100
AcDbEntity
  8
0
100
AcDbBlockEnd
  0
BLOCK
  5
30A
330
303
100
AcDbEntity
  8
0
100
AcDbBlockBegin
  2
*D22
 70
     1
 10
0.0
 20
0.0
 30
0.0
  3
*D22
  1

  0
LINE
  5
304
330
303
100
AcDbEntity
  8
1
  6
Continuous
 62
     2
100
AcDbLine
 10
19.90746364984851
 20
901.1250001485131
 30
0.0
 11
19.90746364984851
 21
851.8749996485132
 31
0.0
  0
LINE
  5
305
330
303
100
AcDbEntity
  8
1
  6
Continuous
 62
     2
100
AcDbLine
 10
52.95775052468865
 20
901.1250001485131
 30
0.0
 11
18.40746364984851
 21
901.1250001485131
 31
0.0
  0
LINE
  5
306
330
303
100
AcDbEntity
  8
1
  6
Continuous
 62
     2
100
AcDbLine
 10
48.49976837880767
 20
851.8749996485132
 30
0.0
 11
18.40746364984851
 21
851.8749996485132
 31
0.0
  0
SOLID
  5
307
330
303
100
AcDbEntity
  8
1
 62
     2
100
AcDbTrace
 10
20.36824739140439
 20
897.6250001485131
 30
0.0
 11
19.44667990829262
 21
897.6250001485131
 31
0.0
 12
19.90746364984851
 22
901.1250001485131
 32
0.0
 13
19.90746364984851
 23
901.1250001485131
 33
0.0
  0
SOLID
  5
308
330
303
100
AcDbEntity
  8
1
 62
     2
100
AcDbTrace
 10
19.44667990829262
 20
855.3749996485132
 30
0.0
 11
20.3682473914044
 21
855.3749996485132
 31
0.0
 12
19.90746364984851
 22
851.8749996485132
 32
0.0
 13
19.90746364984851
 23
851.8749996485132
 33
0.0
  0
MTEXT
  5
309
330
303
100
AcDbEntity
  8
1
 62
     3
100
AcDbMText
 10
18.05746364984851
 20
870.563588560659
 30
0.0
 40
3.5
 41
0.0
 71
     7
 72
     1
  1
49,3
  7
CONVERTER_11
 11
0.0
 21
1.0
 31
0.0
 73
     1
 44
0.60024009603842
  0
ENDBLK
  5
30B
330
303
100
AcDbEntity
  8
0
100
AcDbBlockEnd
  0
ENDSEC
  0
SECTION
  2
ENTITIES
  0
INSERT
  5
86
330
1F
100
AcDbEntity
  8
1
100
AcDbBlockReference
  2
1
 10
0.0
 20
0.0
 30
0.0
  0
ENDSEC
  0
SECTION
  2
OBJECTS
  0
DICTIONARY
  5
C
330
0
100
AcDbDictionary
281
     1
  3
ACAD_GROUP
350
D
  3
ACAD_LAYOUT
350
1A
  3
ACAD_MATERIAL
350
3B
  3
ACAD_MLEADERSTYLE
350
46E
  3
ACAD_MLINESTYLE
350
17
  3
ACAD_PLOTSETTINGS
350
19
  3
ACAD_PLOTSTYLENAME
350
E
  3
ACAD_TABLESTYLE
350
46D
  3
ACAD_VISUALSTYLE
350
2A
  0
DICTIONARY
  5
D
102
{ACAD_REACTORS
330
C
102
}
330
C
100
AcDbDictionary
281
     1
  0
DICTIONARY
  5
1A
102
{ACAD_REACTORS
330
C
102
}
330
C
100
AcDbDictionary
281
     1
  3
Layout1
350
1E
  3
Layout2
350
26
  3
Model
350
22
  0
DICTIONARY
  5
3B
102
{ACAD_REACTORS
330
C
102
}
330
C
100
AcDbDictionary
281
     1
  3
ByBlock
350
3D
  3
ByLayer
350
3C
  3
Global
350
3E
  0
DICTIONARY
  5
46E
102
{ACAD_REACTORS
330
C
102
}
330
C
100
AcDbDictionary
281
     1
  0
DICTIONARY
  5
17
102
{ACAD_REACTORS
330
C
102
}
330
C
100
AcDbDictionary
281
     1
  3
Standard
350
18
  0
DICTIONARY
  5
19
102
{ACAD_REACTORS
330
C
102
}
330
C
100
AcDbDictionary
281
     1
  0
ACDBDICTIONARYWDFLT
  5
E
102
{ACAD_REACTORS
330
C
102
}
330
C
100
AcDbDictionary
281
     1
  3
Normal
350
F
100
AcDbDictionaryWithDefault
340
F
  0
DICTIONARY
  5
46D
102
{ACAD_REACTORS
330
C
102
}
330
C
100
AcDbDictionary
281
     1
  0
DICTIONARY
  5
2A
102
{ACAD_REACTORS
330
C
102
}
330
C
100
AcDbDictionary
281
     1
  3
2dWireframe
350
2F
  3
3D Hidden
350
31
  3
3dWireframe
350
30
  3
Basic
350
32
  3
Brighten
350
36
  3
ColorChange
350
3A
  3
Conceptual
350
34
  3
Dim
350
35
  3
Facepattern
350
39
  3
Flat
350
2B
  3
FlatWithEdges
350
2C
  3
Gouraud
350
2D
  3
GouraudWithEdges
350
2E
  3
Linepattern
350
38
  3
Realistic
350
33
  3
Thicken
350
37
  0
LAYOUT
  5
1E
102
{ACAD_REACTORS
330
1A
102
}
330
1A
100
AcDbPlotSettings
  1

  2
none_device
  4

  6

 40
0.0
 41
0.0
 42
0.0
 43
0.0
 44
0.0
 45
0.0
 46
0.0
 47
0.0
 48
0.0
 49
0.0
140
0.0
141
0.0
142
1.0
143
1.0
 70
   688
 72
     0
 73
     0
 74
     5
  7

 75
    16
 76
     0
 77
     2
 78
   300
147
1.0
148
0.0
149
0.0
100
AcDbLayout
  1
Layout1
 70
     1
 71
     1
 10
0.0
 20
0.0
 11
12.0
 21
9.0
 12
0.0
 22
0.0
 32
0.0
 14
1.00000000000000E+20
 24
1.00000000000000E+20
 34
1.00000000000000E+20
 15
-1.00000000000000E+20
 25
-1.00000000000000E+20
 35
-1.00000000000000E+20
146
0.0
 13
0.0
 23
0.0
 33
0.0
 16
1.0
 26
0.0
 36
0.0
 17
0.0
 27
1.0
 37
0.0
 76
     0
330
1B
  0
LAYOUT
  5
26
102
{ACAD_REACTORS
330
1A
102
}
330
1A
100
AcDbPlotSettings
  1

  2
none_device
  4

  6

 40
0.0
 41
0.0
 42
0.0
 43
0.0
 44
0.0
 45
0.0
 46
0.0
 47
0.0
 48
0.0
 49
0.0
140
0.0
141
0.0
142
1.0
143
1.0
 70
   688
 72
     0
 73
     0
 74
     5
  7

 75
    16
 76
     0
 77
     2
 78
   300
147
1.0
148
0.0
149
0.0
100
AcDbLayout
  1
Layout2
 70
     1
 71
     2
 10
0.0
 20
0.0
 11
0.0
 21
0.0
 12
0.0
 22
0.0
 32
0.0
 14
0.0
 24
0.0
 34
0.0
 15
0.0
 25
0.0
 35
0.0
146
0.0
 13
0.0
 23
0.0
 33
0.0
 16
1.0
 26
0.0
 36
0.0
 17
0.0
 27
1.0
 37
0.0
 76
     0
330
23
  0
LAYOUT
  5
22
102
{ACAD_REACTORS
330
1A
102
}
330
1A
100
AcDbPlotSettings
  1

  2
none_device
  4

  6

 40
0.0
 41
0.0
 42
0.0
 43
0.0
 44
0.0
 45
0.0
 46
0.0
 47
0.0
 48
0.0
 49
0.0
140
0.0
141
0.0
142
1.0
143
1.0
 70
  1712
 72
     0
 73
     0
 74
     0
  7

 75
     0
 76
     0
 77
     2
 78
   300
147
1.0
148
0.0
149
0.0
100
AcDbLayout
  1
Model
 70
     1
 71
     0
 10
0.0
 20
0.0
 11
12.0
 21
9.0
 12
0.0
 22
0.0
 32
0.0
 14
-31.30831238239472
 24
719.9153154261693
 34
0.0
 15
265.6916876176034
 25
929.9153154261694
 35
0.0
146
0.0
 13
0.0
 23
0.0
 33
0.0
 16
1.0
 26
0.0
 36
0.0
 17
0.0
 27
1.0
 37
0.0
 76
     0
330
1F
331
29
  0
MATERIAL
  5
3D
102
{ACAD_REACTORS
330
3B
102
}
102
{ACAD_XDICTIONARY
360
469
102
}
330
3B
100
AcDbMaterial
  1
ByBlock
  0
MATERIAL
  5
3C
102
{ACAD_REACTORS
330
3B
102
}
102
{ACAD_XDICTIONARY
360
467
102
}
330
3B
100
AcDbMaterial
  1
ByLayer
  0
MATERIAL
  5
3E
102
{ACAD_REACTORS
330
3B
102
}
102
{ACAD_XDICTIONARY
360
46B
102
}
330
3B
100
AcDbMaterial
  1
Global
  0
MLINESTYLE
  5
18
102
{ACAD_REACTORS
330
17
102
}
330
17
100
AcDbMlineStyle
  2
Standard
 70
     0
  3

 62
   256
 51
90.0
 52
90.0
 71
     2
 49
0.5
 62
   256
  6
BYLAYER
 49
-0.5
 62
   256
  6
BYLAYER
  0
ACDBPLACEHOLDER
  5
F
102
{ACAD_REACTORS
330
E
102
}
330
E
  0
VISUALSTYLE
  5
2F
102
{ACAD_REACTORS
330
2A
102
}
102
{ACAD_XDICTIONARY
360
44F
102
}
330
2A
100
AcDbVisualStyle
  2
2dWireframe
 70
     4
 71
     0
 72
     2
 73
     0
 90
        0
 40
-0.6
 41
-30.0
 62
     5
 63
     7
421
 16777215
 74
     1
 91
        4
 64
     7
 65
   257
 75
     1
175
     1
 42
1.0
 92
        0
 66
   257
 43
1.0
 76
     1
 77
     6
 78
     2
 67
     7
 79
     5
170
     0
171
     0
290
     0
174
     0
 93
        1
 44
0.0
173
     0
291
     0
 45
0.0
1001
ACAD
1000
AcDbSavedByObjectVersion
1070
     0
  0
VISUALSTYLE
  5
31
102
{ACAD_REACTORS
330
2A
102
}
102
{ACAD_XDICTIONARY
360
453
102
}
330
2A
100
AcDbVisualStyle
  2
3D Hidden
 70
     6
 71
     1
 72
     2
 73
     2
 90
        0
 40
-0.6
 41
-30.0
 62
     5
 63
     7
421
 16777215
 74
     2
 91
        2
 64
     7
 65
   257
 75
     2
175
     1
 42
40.0
 92
        0
 66
   257
 43
1.0
 76
     1
 77
     6
 78
     2
 67
     7
 79
     3
170
     0
171
     0
290
     0
174
     0
 93
        1
 44
0.0
173
     0
291
     0
 45
0.0
1001
ACAD
1000
AcDbSavedByObjectVersion
1070
     0
  0
VISUALSTYLE
  5
30
102
{ACAD_REACTORS
330
2A
102
}
102
{ACAD_XDICTIONARY
360
451
102
}
330
2A
100
AcDbVisualStyle
  2
3dWireframe
 70
     5
 71
     0
 72
     2
 73
     0
 90
        0
 40
-0.6
 41
-30.0
 62
     5
 63
     7
421
 16777215
 74
     1
 91
        4
 64
     7
 65
   257
 75
     1
175
     1
 42
1.0
 92
        0
 66
   257
 43
1.0
 76
     1
 77
     6
 78
     2
 67
     7
 79
     5
170
     0
171
     0
290
     0
174
     0
 93
        1
 44
0.0
173
     0
291
     0
 45
0.0
1001
ACAD
1000
AcDbSavedByObjectVersion
1070
     0
  0
VISUALSTYLE
  5
32
102
{ACAD_REACTORS
330
2A
102
}
102
{ACAD_XDICTIONARY
360
455
102
}
330
2A
100
AcDbVisualStyle
  2
Basic
 70
     7
 71
     1
 72
     0
 73
     1
 90
        0
 40
-0.6
 41
-30.0
 62
     5
 63
     7
421
 16777215
 74
     0
 91
        4
 64
     7
 65
   257
 75
     1
175
     1
 42
1.0
 92
        8
 66
     7
 43
1.0
 76
     1
 77
     6
 78
     2
 67
     7
 79
     5
170
     0
171
     0
290
     0
174
     0
 93
        1
 44
0.0
173
     0
291
     1
 45
0.0
1001
ACAD
1000
AcDbSavedByObjectVersion
1070
     0
  0
VISUALSTYLE
  5
36
102
{ACAD_REACTORS
330
2A
102
}
102
{ACAD_XDICTIONARY
360
45D
102
}
330
2A
100
AcDbVisualStyle
  2
Brighten
 70
    12
 71
     2
 72
     2
 73
     0
 90
        0
 40
-0.6
 41
-30.0
 62
     5
 63
     7
421
 16777215
 74
     1
 91
        4
 64
     7
 65
   257
 75
     1
175
     1
 42
1.0
 92
        8
 66
     7
 43
1.0
 76
     1
 77
     6
 78
     2
 67
     7
 79
     5
170
     0
171
     0
290
     0
174
     0
 93
        1
 44
50.0
173
     0
291
     1
 45
0.0
1001
ACAD
1000
AcDbSavedByObjectVersion
1070
     0
  0
VISUALSTYLE
  5
3A
102
{ACAD_REACTORS
330
2A
102
}
102
{ACAD_XDICTIONARY
360
465
102
}
330
2A
100
AcDbVisualStyle
  2
ColorChange
 70
    16
 71
     2
 72
     2
 73
     3
 90
        0
 40
-0.6
 41
-30.0
 62
     5
 63
     8
421
  8421504
 74
     1
 91
        4
 64
     7
 65
   257
 75
     1
175
     1
 42
1.0
 92
        8
 66
     8
424
  8421504
 43
1.0
 76
     1
 77
     6
 78
     2
 67
     7
 79
     5
170
     0
171
     0
290
     0
174
     0
 93
        1
 44
0.0
173
     0
291
     1
 45
0.0
1001
ACAD
1000
AcDbSavedByObjectVersion
1070
     0
  0
VISUALSTYLE
  5
34
102
{ACAD_REACTORS
330
2A
102
}
102
{ACAD_XDICTIONARY
360
459
102
}
330
2A
100
AcDbVisualStyle
  2
Conceptual
 70
     9
 71
     3
 72
     2
 73
     0
 90
        0
 40
-0.6
 41
-30.0
 62
     5
 63
     7
421
 16777215
 74
     2
 91
        2
 64
     7
 65
   257
 75
     1
175
     1
 42
40.0
 92
        8
 66
     7
 43
1.0
 76
     1
 77
     6
 78
     2
 67
     7
 79
     3
170
     0
171
     0
290
     0
174
     0
 93
        1
 44
0.0
173
     0
291
     0
 45
0.0
1001
ACAD
1000
AcDbSavedByObjectVersion
1070
     0
  0
VISUALSTYLE
  5
35
102
{ACAD_REACTORS
330
2A
102
}
102
{ACAD_XDICTIONARY
360
45B
102
}
330
2A
100
AcDbVisualStyle
  2
Dim
 70
    11
 71
     2
 72
     2
 73
     0
 90
        0
 40
-0.6
 41
-30.0
 62
     5
 63
     7
421
 16777215
 74
     1
 91
        4
 64
     7
 65
   257
 75
     1
175
     1
 42
1.0
 92
        8
 66
     7
 43
1.0
 76
     1
 77
     6
 78
     2
 67
     7
 79
     5
170
     0
171
     0
290
     0
174
     0
 93
        1
 44
-50.0
173
     0
291
     1
 45
0.0
1001
ACAD
1000
AcDbSavedByObjectVersion
1070
     0
  0
VISUALSTYLE
  5
39
102
{ACAD_REACTORS
330
2A
102
}
102
{ACAD_XDICTIONARY
360
463
102
}
330
2A
100
AcDbVisualStyle
  2
Facepattern
 70
    15
 71
     2
 72
     2
 73
     0
 90
        0
 40
-0.6
 41
-30.0
 62
     5
 63
     7
421
 16777215
 74
     1
 91
        4
 64
     7
 65
   257
 75
     1
175
     1
 42
1.0
 92
        8
 66
     7
 43
1.0
 76
     1
 77
     6
 78
     2
 67
     7
 79
     5
170
     0
171
     0
290
     0
174
     0
 93
        1
 44
0.0
173
     0
291
     1
 45
0.0
1001
ACAD
1000
AcDbSavedByObjectVersion
1070
     0
  0
VISUALSTYLE
  5
2B
102
{ACAD_REACTORS
330
2A
102
}
102
{ACAD_XDICTIONARY
360
447
102
}
330
2A
100
AcDbVisualStyle
  2
Flat
 70
     0
 71
     2
 72
     1
 73
     1
 90
        2
 40
-0.6
 41
30.0
 62
     5
 63
     7
421
 16777215
 74
     0
 91
        4
 64
     7
 65
   257
 75
     1
175
     1
 42
1.0
 92
        8
 66
     7
 43
1.0
 76
     1
 77
     6
 78
     2
 67
     7
 79
     5
170
     0
171
     0
290
     0
174
     0
 93
       13
 44
0.0
173
     0
291
     1
 45
0.0
1001
ACAD
1000
AcDbSavedByObjectVersion
1070
     0
  0
VISUALSTYLE
  5
2C
102
{ACAD_REACTORS
330
2A
102
}
102
{ACAD_XDICTIONARY
360
449
102
}
330
2A
100
AcDbVisualStyle
  2
FlatWithEdges
 70
     1
 71
     2
 72
     1
 73
     1
 90
        2
 40
-0.6
 41
30.0
 62
     5
 63
     7
421
 16777215
 74
     1
 91
        4
 64
     7
 65
   257
 75
     1
175
     1
 42
1.0
 92
        0
 66
   257
 43
1.0
 76
     1
 77
     6
 78
     2
 67
     7
 79
     5
170
     0
171
     0
290
     0
174
     0
 93
       13
 44
0.0
173
     0
291
     1
 45
0.0
1001
ACAD
1000
AcDbSavedByObjectVersion
1070
     0
  0
VISUALSTYLE
  5
2D
102
{ACAD_REACTORS
330
2A
102
}
102
{ACAD_XDICTIONARY
360
44B
102
}
330
2A
100
AcDbVisualStyle
  2
Gouraud
 70
     2
 71
     2
 72
     2
 73
     1
 90
        2
 40
-0.6
 41
30.0
 62
     5
 63
     7
421
 16777215
 74
     0
 91
        4
 64
     7
 65
   257
 75
     1
175
     1
 42
1.0
 92
        0
 66
     7
 43
1.0
 76
     1
 77
     6
 78
     2
 67
     7
 79
     5
170
     0
171
     0
290
     0
174
     0
 93
       13
 44
0.0
173
     0
291
     1
 45
0.0
1001
ACAD
1000
AcDbSavedByObjectVersion
1070
     0
  0
VISUALSTYLE
  5
2E
102
{ACAD_REACTORS
330
2A
102
}
102
{ACAD_XDICTIONARY
360
44D
102
}
330
2A
100
AcDbVisualStyle
  2
GouraudWithEdges
 70
     3
 71
     2
 72
     2
 73
     1
 90
        2
 40
-0.6
 41
30.0
 62
     5
 63
     7
421
 16777215
 74
     1
 91
        4
 64
     7
 65
   257
 75
     1
175
     1
 42
1.0
 92
        0
 66
   257
 43
1.0
 76
     1
 77
     6
 78
     2
 67
     7
 79
     5
170
     0
171
     0
290
     0
174
     0
 93
       13
 44
0.0
173
     0
291
     1
 45
0.0
1001
ACAD
1000
AcDbSavedByObjectVersion
1070
     0
  0
VISUALSTYLE
  5
38
102
{ACAD_REACTORS
330
2A
102
}
102
{ACAD_XDICTIONARY
360
461
102
}
330
2A
100
AcDbVisualStyle
  2
Linepattern
 70
    14
 71
     2
 72
     2
 73
     0
 90
        0
 40
-0.6
 41
-30.0
 62
     5
 63
     7
421
 16777215
 74
     1
 91
        4
 64
     7
 65
   257
 75
     7
175
     7
 42
1.0
 92
        8
 66
     7
 43
1.0
 76
     1
 77
     6
 78
     2
 67
     7
 79
     5
170
     0
171
     0
290
     0
174
     0
 93
        1
 44
0.0
173
     0
291
     1
 45
0.0
1001
ACAD
1000
AcDbSavedByObjectVersion
1070
     0
  0
VISUALSTYLE
  5
33
102
{ACAD_REACTORS
330
2A
102
}
102
{ACAD_XDICTIONARY
360
457
102
}
330
2A
100
AcDbVisualStyle
  2
Realistic
 70
     8
 71
     2
 72
     2
 73
     0
 90
        0
 40
-0.6
 41
-30.0
 62
     5
 63
     7
421
 16777215
 74
     1
 91
        0
 64
     7
 65
   257
 75
     1
175
     1
 42
1.0
 92
        8
 66
     8
424
  7895160
 43
1.0
 76
     1
 77
     6
 78
     2
 67
     7
 79
     5
170
     0
171
     0
290
     0
174
     0
 93
       13
 44
0.0
173
     0
291
     0
 45
0.0
1001
ACAD
1000
AcDbSavedByObjectVersion
1070
     0
  0
VISUALSTYLE
  5
37
102
{ACAD_REACTORS
330
2A
102
}
102
{ACAD_XDICTIONARY
360
45F
102
}
330
2A
100
AcDbVisualStyle
  2
Thicken
 70
    13
 71
     2
 72
     2
 73
     0
 90
        0
 40
-0.6
 41
-30.0
 62
     5
 63
     7
421
 16777215
 74
     1
 91
        4
 64
     7
 65
   257
 75
     1
175
     1
 42
1.0
 92
       12
 66
     7
 43
1.0
 76
     1
 77
     6
 78
     2
 67
     7
 79
     5
170
     0
171
     0
290
     0
174
     0
 93
        1
 44
0.0
173
     0
291
     1
 45
0.0
1001
ACAD
1000
AcDbSavedByObjectVersion
1070
     0
  0
DICTIONARY
  5
469
330
3D
100
AcDbDictionary
280
     1
281
     1
  3
ACAD_XREC_ROUNDTRIP
360
46A
  0
DICTIONARY
  5
467
330
3C
100
AcDbDictionary
280
     1
281
     1
  3
ACAD_XREC_ROUNDTRIP
360
468
  0
DICTIONARY
  5
46B
330
3E
100
AcDbDictionary
280
     1
281
     1
  3
ACAD_XREC_ROUNDTRIP
360
46C
  0
DICTIONARY
  5
44F
330
2F
100
AcDbDictionary
280
     1
281
     1
  3
ACAD_XREC_ROUNDTRIP
360
450
  0
DICTIONARY
  5
453
330
31
100
AcDbDictionary
280
     1
281
     1
  3
ACAD_XREC_ROUNDTRIP
360
454
  0
DICTIONARY
  5
451
330
30
100
AcDbDictionary
280
     1
281
     1
  3
ACAD_XREC_ROUNDTRIP
360
452
  0
DICTIONARY
  5
455
330
32
100
AcDbDictionary
280
     1
281
     1
  3
ACAD_XREC_ROUNDTRIP
360
456
  0
DICTIONARY
  5
45D
330
36
100
AcDbDictionary
280
     1
281
     1
  3
ACAD_XREC_ROUNDTRIP
360
45E
  0
DICTIONARY
  5
465
330
3A
100
AcDbDictionary
280
     1
281
     1
  3
ACAD_XREC_ROUNDTRIP
360
466
  0
DICTIONARY
  5
459
330
34
100
AcDbDictionary
280
     1
281
     1
  3
ACAD_XREC_ROUNDTRIP
360
45A
  0
DICTIONARY
  5
45B
330
35
100
AcDbDictionary
280
     1
281
     1
  3
ACAD_XREC_ROUNDTRIP
360
45C
  0
DICTIONARY
  5
463
330
39
100
AcDbDictionary
280
     1
281
     1
  3
ACAD_XREC_ROUNDTRIP
360
464
  0
DICTIONARY
  5
447
330
2B
100
AcDbDictionary
280
     1
281
     1
  3
ACAD_XREC_ROUNDTRIP
360
448
  0
DICTIONARY
  5
449
330
2C
100
AcDbDictionary
280
     1
281
     1
  3
ACAD_XREC_ROUNDTRIP
360
44A
  0
DICTIONARY
  5
44B
330
2D
100
AcDbDictionary
280
     1
281
     1
  3
ACAD_XREC_ROUNDTRIP
360
44C
  0
DICTIONARY
  5
44D
330
2E
100
AcDbDictionary
280
     1
281
     1
  3
ACAD_XREC_ROUNDTRIP
360
44E
  0
DICTIONARY
  5
461
330
38
100
AcDbDictionary
280
     1
281
     1
  3
ACAD_XREC_ROUNDTRIP
360
462
  0
DICTIONARY
  5
457
330
33
100
AcDbDictionary
280
     1
281
     1
  3
ACAD_XREC_ROUNDTRIP
360
458
  0
DICTIONARY
  5
45F
330
37
100
AcDbDictionary
280
     1
281
     1
  3
ACAD_XREC_ROUNDTRIP
360
460
  0
XRECORD
  5
46A
102
{ACAD_REACTORS
330
469
102
}
330
469
100
AcDbXrecord
280
     1
102
MATERIAL
148
0.0
149
0.0
149
0.0
 93
        0
 94
      127
282
     0
 72
     1
 77
     1
171
     1
175
     1
179
     1
273
     0
  0
XRECORD
  5
468
102
{ACAD_REACTORS
330
467
102
}
330
467
100
AcDbXrecord
280
     1
102
MATERIAL
148
0.0
149
0.0
149
0.0
 93
        0
 94
      127
282
     0
 72
     1
 77
     1
171
     1
175
     1
179
     1
273
     0
  0
XRECORD
  5
46C
102
{ACAD_REACTORS
330
46B
102
}
330
46B
100
AcDbXrecord
280
     1
102
MATERIAL
148
0.0
149
0.0
149
0.0
 93
        0
 94
      127
282
     0
 72
     1
 77
     1
171
     1
175
     1
179
     1
273
     0
  0
XRECORD
  5
450
102
{ACAD_REACTORS
330
44F
102
}
330
44F
100
AcDbXrecord
280
     1
102
RTVSPropertyOp0
 70
     1
102
RTVSPropertyOp1
 70
     1
102
RTVSPropertyOp2
 70
     1
102
RTVSPropertyOp3
 70
     1
102
RTVSPropertyOp4
 70
     1
102
RTVSPropertyOp5
 70
     1
102
RTVSPropertyOp6
 70
     1
102
RTVSPropertyOp7
 70
     1
102
RTVSPropertyOp8
 70
     1
102
RTVSPropertyOp9
 70
     1
102
RTVSPropertyOp10
 70
     1
102
RTVSPropertyOp11
 70
     1
102
RTVSPropertyOp12
 70
     1
102
RTVSPropertyOp13
 70
     1
102
RTVSPropertyOp14
 70
     1
102
RTVSPropertyOp15
 70
     1
102
RTVSPropertyOp16
 70
     1
102
RTVSPropertyOp17
 70
     1
102
RTVSPropertyOp18
 70
     1
102
RTVSPropertyOp19
 70
     1
102
RTVSPropertyOp20
 70
     1
102
RTVSPropertyOp21
 70
     1
102
RTVSPropertyOp22
 70
     1
102
RTVSPropertyOp23
 70
     1
102
RTVSPropertyOp24
 70
     1
102
RTVSPropertyOp25
 70
     1
102
RTVSPropertyOp26
 70
     1
102
RTVSPropertyOp27
 70
     1
102
RTVSPropertyOp28
 70
     1
102
RTVSPropertyOp29
 70
     1
102
RTVSPropertyOp30
 70
     1
102
RTVSPropertyOp31
 70
     1
102
RTVSPropertyOp32
 70
     1
  0
XRECORD
  5
454
102
{ACAD_REACTORS
330
453
102
}
330
453
100
AcDbXrecord
280
     1
102
RTVSPropertyOp0
 70
     1
102
RTVSPropertyOp1
 70
     1
102
RTVSPropertyOp2
 70
     1
102
RTVSPropertyOp3
 70
     1
102
RTVSPropertyOp4
 70
     1
102
RTVSPropertyOp5
 70
     1
102
RTVSPropertyOp6
 70
     1
102
RTVSPropertyOp7
 70
     1
102
RTVSPropertyOp8
 70
     1
102
RTVSPropertyOp9
 70
     1
102
RTVSPropertyOp10
 70
     1
102
RTVSPropertyOp11
 70
     1
102
RTVSPropertyOp12
 70
     1
102
RTVSPropertyOp13
 70
     1
102
RTVSPropertyOp14
 70
     1
102
RTVSPropertyOp15
 70
     1
102
RTVSPropertyOp16
 70
     1
102
RTVSPropertyOp17
 70
     1
102
RTVSPropertyOp18
 70
     1
102
RTVSPropertyOp19
 70
     1
102
RTVSPropertyOp20
 70
     1
102
RTVSPropertyOp21
 70
     1
102
RTVSPropertyOp22
 70
     1
102
RTVSPropertyOp23
 70
     1
102
RTVSPropertyOp24
 70
     1
102
RTVSPropertyOp25
 70
     1
102
RTVSPropertyOp26
 70
     1
102
RTVSPropertyOp27
 70
     1
102
RTVSPropertyOp28
 70
     1
102
RTVSPropertyOp29
 70
     1
102
RTVSPropertyOp30
 70
     1
102
RTVSPropertyOp31
 70
     1
102
RTVSPropertyOp32
 70
     1
  0
XRECORD
  5
452
102
{ACAD_REACTORS
330
451
102
}
330
451
100
AcDbXrecord
280
     1
102
RTVSPropertyOp0
 70
     1
102
RTVSPropertyOp1
 70
     1
102
RTVSPropertyOp2
 70
     1
102
RTVSPropertyOp3
 70
     1
102
RTVSPropertyOp4
 70
     1
102
RTVSPropertyOp5
 70
     1
102
RTVSPropertyOp6
 70
     1
102
RTVSPropertyOp7
 70
     1
102
RTVSPropertyOp8
 70
     1
102
RTVSPropertyOp9
 70
     1
102
RTVSPropertyOp10
 70
     1
102
RTVSPropertyOp11
 70
     1
102
RTVSPropertyOp12
 70
     1
102
RTVSPropertyOp13
 70
     1
102
RTVSPropertyOp14
 70
     1
102
RTVSPropertyOp15
 70
     1
102
RTVSPropertyOp16
 70
     1
102
RTVSPropertyOp17
 70
     1
102
RTVSPropertyOp18
 70
     1
102
RTVSPropertyOp19
 70
     1
102
RTVSPropertyOp20
 70
     1
102
RTVSPropertyOp21
 70
     1
102
RTVSPropertyOp22
 70
     1
102
RTVSPropertyOp23
 70
     1
102
RTVSPropertyOp24
 70
     1
102
RTVSPropertyOp25
 70
     1
102
RTVSPropertyOp26
 70
     1
102
RTVSPropertyOp27
 70
     1
102
RTVSPropertyOp28
 70
     1
102
RTVSPropertyOp29
 70
     1
102
RTVSPropertyOp30
 70
     1
102
RTVSPropertyOp31
 70
     1
102
RTVSPropertyOp32
 70
     1
  0
XRECORD
  5
456
102
{ACAD_REACTORS
330
455
102
}
330
455
100
AcDbXrecord
280
     1
102
RTVSPropertyOp0
 70
     1
102
RTVSPropertyOp1
 70
     1
102
RTVSPropertyOp2
 70
     1
102
RTVSPropertyOp3
 70
     1
102
RTVSPropertyOp4
 70
     1
102
RTVSPropertyOp5
 70
     1
102
RTVSPropertyOp6
 70
     1
102
RTVSPropertyOp7
 70
     1
102
RTVSPropertyOp8
 70
     1
102
RTVSPropertyOp9
 70
     1
102
RTVSPropertyOp10
 70
     1
102
RTVSPropertyOp11
 70
     1
102
RTVSPropertyOp12
 70
     1
102
RTVSPropertyOp13
 70
     1
102
RTVSPropertyOp14
 70
     1
102
RTVSPropertyOp15
 70
     1
102
RTVSPropertyOp16
 70
     1
102
RTVSPropertyOp17
 70
     1
102
RTVSPropertyOp18
 70
     1
102
RTVSPropertyOp19
 70
     1
102
RTVSPropertyOp20
 70
     1
102
RTVSPropertyOp21
 70
     1
102
RTVSPropertyOp22
 70
     1
102
RTVSPropertyOp23
 70
     1
102
RTVSPropertyOp24
 70
     1
102
RTVSPropertyOp25
 70
     1
102
RTVSPropertyOp26
 70
     1
102
RTVSPropertyOp27
 70
     1
102
RTVSPropertyOp28
 70
     1
102
RTVSPropertyOp29
 70
     1
102
RTVSPropertyOp30
 70
     1
102
RTVSPropertyOp31
 70
     1
102
RTVSPropertyOp32
 70
     1
  0
XRECORD
  5
45E
102
{ACAD_REACTORS
330
45D
102
}
330
45D
100
AcDbXrecord
280
     1
102
RTVSPropertyOp0
 70
     1
102
RTVSPropertyOp1
 70
     1
102
RTVSPropertyOp2
 70
     1
102
RTVSPropertyOp3
 70
     1
102
RTVSPropertyOp4
 70
     1
102
RTVSPropertyOp5
 70
     1
102
RTVSPropertyOp6
 70
     1
102
RTVSPropertyOp7
 70
     1
102
RTVSPropertyOp8
 70
     1
102
RTVSPropertyOp9
 70
     1
102
RTVSPropertyOp10
 70
     1
102
RTVSPropertyOp11
 70
     1
102
RTVSPropertyOp12
 70
     1
102
RTVSPropertyOp13
 70
     1
102
RTVSPropertyOp14
 70
     1
102
RTVSPropertyOp15
 70
     1
102
RTVSPropertyOp16
 70
     1
102
RTVSPropertyOp17
 70
     1
102
RTVSPropertyOp18
 70
     1
102
RTVSPropertyOp19
 70
     1
102
RTVSPropertyOp20
 70
     1
102
RTVSPropertyOp21
 70
     1
102
RTVSPropertyOp22
 70
     1
102
RTVSPropertyOp23
 70
     1
102
RTVSPropertyOp24
 70
     1
102
RTVSPropertyOp25
 70
     1
102
RTVSPropertyOp26
 70
     1
102
RTVSPropertyOp27
 70
     1
102
RTVSPropertyOp28
 70
     1
102
RTVSPropertyOp29
 70
     1
102
RTVSPropertyOp30
 70
     1
102
RTVSPropertyOp31
 70
     1
102
RTVSPropertyOp32
 70
     1
  0
XRECORD
  5
466
102
{ACAD_REACTORS
330
465
102
}
330
465
100
AcDbXrecord
280
     1
102
RTVSPropertyOp0
 70
     1
102
RTVSPropertyOp1
 70
     1
102
RTVSPropertyOp2
 70
     1
102
RTVSPropertyOp3
 70
     1
102
RTVSPropertyOp4
 70
     1
102
RTVSPropertyOp5
 70
     1
102
RTVSPropertyOp6
 70
     1
102
RTVSPropertyOp7
 70
     1
102
RTVSPropertyOp8
 70
     1
102
RTVSPropertyOp9
 70
     1
102
RTVSPropertyOp10
 70
     1
102
RTVSPropertyOp11
 70
     1
102
RTVSPropertyOp12
 70
     1
102
RTVSPropertyOp13
 70
     1
102
RTVSPropertyOp14
 70
     1
102
RTVSPropertyOp15
 70
     1
102
RTVSPropertyOp16
 70
     1
102
RTVSPropertyOp17
 70
     1
102
RTVSPropertyOp18
 70
     1
102
RTVSPropertyOp19
 70
     1
102
RTVSPropertyOp20
 70
     1
102
RTVSPropertyOp21
 70
     1
102
RTVSPropertyOp22
 70
     1
102
RTVSPropertyOp23
 70
     1
102
RTVSPropertyOp24
 70
     1
102
RTVSPropertyOp25
 70
     1
102
RTVSPropertyOp26
 70
     1
102
RTVSPropertyOp27
 70
     1
102
RTVSPropertyOp28
 70
     1
102
RTVSPropertyOp29
 70
     1
102
RTVSPropertyOp30
 70
     1
102
RTVSPropertyOp31
 70
     1
102
RTVSPropertyOp32
 70
     1
  0
XRECORD
  5
45A
102
{ACAD_REACTORS
330
459
102
}
330
459
100
AcDbXrecord
280
     1
102
RTVSPropertyOp0
 70
     1
102
RTVSPropertyOp1
 70
     1
102
RTVSPropertyOp2
 70
     1
102
RTVSPropertyOp3
 70
     1
102
RTVSPropertyOp4
 70
     1
102
RTVSPropertyOp5
 70
     1
102
RTVSPropertyOp6
 70
     1
102
RTVSPropertyOp7
 70
     1
102
RTVSPropertyOp8
 70
     1
102
RTVSPropertyOp9
 70
     1
102
RTVSPropertyOp10
 70
     1
102
RTVSPropertyOp11
 70
     1
102
RTVSPropertyOp12
 70
     1
102
RTVSPropertyOp13
 70
     1
102
RTVSPropertyOp14
 70
     1
102
RTVSPropertyOp15
 70
     1
102
RTVSPropertyOp16
 70
     1
102
RTVSPropertyOp17
 70
     1
102
RTVSPropertyOp18
 70
     1
102
RTVSPropertyOp19
 70
     1
102
RTVSPropertyOp20
 70
     1
102
RTVSPropertyOp21
 70
     1
102
RTVSPropertyOp22
 70
     1
102
RTVSPropertyOp23
 70
     1
102
RTVSPropertyOp24
 70
     1
102
RTVSPropertyOp25
 70
     1
102
RTVSPropertyOp26
 70
     1
102
RTVSPropertyOp27
 70
     1
102
RTVSPropertyOp28
 70
     1
102
RTVSPropertyOp29
 70
     1
102
RTVSPropertyOp30
 70
     1
102
RTVSPropertyOp31
 70
     1
102
RTVSPropertyOp32
 70
     1
  0
XRECORD
  5
45C
102
{ACAD_REACTORS
330
45B
102
}
330
45B
100
AcDbXrecord
280
     1
102
RTVSPropertyOp0
 70
     1
102
RTVSPropertyOp1
 70
     1
102
RTVSPropertyOp2
 70
     1
102
RTVSPropertyOp3
 70
     1
102
RTVSPropertyOp4
 70
     1
102
RTVSPropertyOp5
 70
     1
102
RTVSPropertyOp6
 70
     1
102
RTVSPropertyOp7
 70
     1
102
RTVSPropertyOp8
 70
     1
102
RTVSPropertyOp9
 70
     1
102
RTVSPropertyOp10
 70
     1
102
RTVSPropertyOp11
 70
     1
102
RTVSPropertyOp12
 70
     1
102
RTVSPropertyOp13
 70
     1
102
RTVSPropertyOp14
 70
     1
102
RTVSPropertyOp15
 70
     1
102
RTVSPropertyOp16
 70
     1
102
RTVSPropertyOp17
 70
     1
102
RTVSPropertyOp18
 70
     1
102
RTVSPropertyOp19
 70
     1
102
RTVSPropertyOp20
 70
     1
102
RTVSPropertyOp21
 70
     1
102
RTVSPropertyOp22
 70
     1
102
RTVSPropertyOp23
 70
     1
102
RTVSPropertyOp24
 70
     1
102
RTVSPropertyOp25
 70
     1
102
RTVSPropertyOp26
 70
     1
102
RTVSPropertyOp27
 70
     1
102
RTVSPropertyOp28
 70
     1
102
RTVSPropertyOp29
 70
     1
102
RTVSPropertyOp30
 70
     1
102
RTVSPropertyOp31
 70
     1
102
RTVSPropertyOp32
 70
     1
  0
XRECORD
  5
464
102
{ACAD_REACTORS
330
463
102
}
330
463
100
AcDbXrecord
280
     1
102
RTVSPropertyOp0
 70
     1
102
RTVSPropertyOp1
 70
     1
102
RTVSPropertyOp2
 70
     1
102
RTVSPropertyOp3
 70
     1
102
RTVSPropertyOp4
 70
     1
102
RTVSPropertyOp5
 70
     1
102
RTVSPropertyOp6
 70
     1
102
RTVSPropertyOp7
 70
     1
102
RTVSPropertyOp8
 70
     1
102
RTVSPropertyOp9
 70
     1
102
RTVSPropertyOp10
 70
     1
102
RTVSPropertyOp11
 70
     1
102
RTVSPropertyOp12
 70
     1
102
RTVSPropertyOp13
 70
     1
102
RTVSPropertyOp14
 70
     1
102
RTVSPropertyOp15
 70
     1
102
RTVSPropertyOp16
 70
     1
102
RTVSPropertyOp17
 70
     1
102
RTVSPropertyOp18
 70
     1
102
RTVSPropertyOp19
 70
     1
102
RTVSPropertyOp20
 70
     1
102
RTVSPropertyOp21
 70
     1
102
RTVSPropertyOp22
 70
     1
102
RTVSPropertyOp23
 70
     1
102
RTVSPropertyOp24
 70
     1
102
RTVSPropertyOp25
 70
     1
102
RTVSPropertyOp26
 70
     1
102
RTVSPropertyOp27
 70
     1
102
RTVSPropertyOp28
 70
     1
102
RTVSPropertyOp29
 70
     1
102
RTVSPropertyOp30
 70
     1
102
RTVSPropertyOp31
 70
     1
102
RTVSPropertyOp32
 70
     1
  0
XRECORD
  5
448
102
{ACAD_REACTORS
330
447
102
}
330
447
100
AcDbXrecord
280
     1
102
RTVSPropertyOp0
 70
     1
102
RTVSPropertyOp1
 70
     1
102
RTVSPropertyOp2
 70
     1
102
RTVSPropertyOp3
 70
     1
102
RTVSPropertyOp4
 70
     1
102
RTVSPropertyOp5
 70
     1
102
RTVSPropertyOp6
 70
     1
102
RTVSPropertyOp7
 70
     1
102
RTVSPropertyOp8
 70
     1
102
RTVSPropertyOp9
 70
     1
102
RTVSPropertyOp10
 70
     1
102
RTVSPropertyOp11
 70
     1
102
RTVSPropertyOp12
 70
     1
102
RTVSPropertyOp13
 70
     1
102
RTVSPropertyOp14
 70
     1
102
RTVSPropertyOp15
 70
     1
102
RTVSPropertyOp16
 70
     1
102
RTVSPropertyOp17
 70
     1
102
RTVSPropertyOp18
 70
     1
102
RTVSPropertyOp19
 70
     1
102
RTVSPropertyOp20
 70
     1
102
RTVSPropertyOp21
 70
     1
102
RTVSPropertyOp22
 70
     1
102
RTVSPropertyOp23
 70
     1
102
RTVSPropertyOp24
 70
     1
102
RTVSPropertyOp25
 70
     1
102
RTVSPropertyOp26
 70
     1
102
RTVSPropertyOp27
 70
     1
102
RTVSPropertyOp28
 70
     1
102
RTVSPropertyOp29
 70
     1
102
RTVSPropertyOp30
 70
     1
102
RTVSPropertyOp31
 70
     1
102
RTVSPropertyOp32
 70
     1
  0
XRECORD
  5
44A
102
{ACAD_REACTORS
330
449
102
}
330
449
100
AcDbXrecord
280
     1
102
RTVSPropertyOp0
 70
     1
102
RTVSPropertyOp1
 70
     1
102
RTVSPropertyOp2
 70
     1
102
RTVSPropertyOp3
 70
     1
102
RTVSPropertyOp4
 70
     1
102
RTVSPropertyOp5
 70
     1
102
RTVSPropertyOp6
 70
     1
102
RTVSPropertyOp7
 70
     1
102
RTVSPropertyOp8
 70
     1
102
RTVSPropertyOp9
 70
     1
102
RTVSPropertyOp10
 70
     1
102
RTVSPropertyOp11
 70
     1
102
RTVSPropertyOp12
 70
     1
102
RTVSPropertyOp13
 70
     1
102
RTVSPropertyOp14
 70
     1
102
RTVSPropertyOp15
 70
     1
102
RTVSPropertyOp16
 70
     1
102
RTVSPropertyOp17
 70
     1
102
RTVSPropertyOp18
 70
     1
102
RTVSPropertyOp19
 70
     1
102
RTVSPropertyOp20
 70
     1
102
RTVSPropertyOp21
 70
     1
102
RTVSPropertyOp22
 70
     1
102
RTVSPropertyOp23
 70
     1
102
RTVSPropertyOp24
 70
     1
102
RTVSPropertyOp25
 70
     1
102
RTVSPropertyOp26
 70
     1
102
RTVSPropertyOp27
 70
     1
102
RTVSPropertyOp28
 70
     1
102
RTVSPropertyOp29
 70
     1
102
RTVSPropertyOp30
 70
     1
102
RTVSPropertyOp31
 70
     1
102
RTVSPropertyOp32
 70
     1
  0
XRECORD
  5
44C
102
{ACAD_REACTORS
330
44B
102
}
330
44B
100
AcDbXrecord
280
     1
102
RTVSPropertyOp0
 70
     1
102
RTVSPropertyOp1
 70
     1
102
RTVSPropertyOp2
 70
     1
102
RTVSPropertyOp3
 70
     1
102
RTVSPropertyOp4
 70
     1
102
RTVSPropertyOp5
 70
     1
102
RTVSPropertyOp6
 70
     1
102
RTVSPropertyOp7
 70
     1
102
RTVSPropertyOp8
 70
     1
102
RTVSPropertyOp9
 70
     1
102
RTVSPropertyOp10
 70
     1
102
RTVSPropertyOp11
 70
     1
102
RTVSPropertyOp12
 70
     1
102
RTVSPropertyOp13
 70
     1
102
RTVSPropertyOp14
 70
     1
102
RTVSPropertyOp15
 70
     1
102
RTVSPropertyOp16
 70
     1
102
RTVSPropertyOp17
 70
     1
102
RTVSPropertyOp18
 70
     1
102
RTVSPropertyOp19
 70
     1
102
RTVSPropertyOp20
 70
     1
102
RTVSPropertyOp21
 70
     1
102
RTVSPropertyOp22
 70
     1
102
RTVSPropertyOp23
 70
     1
102
RTVSPropertyOp24
 70
     1
102
RTVSPropertyOp25
 70
     1
102
RTVSPropertyOp26
 70
     1
102
RTVSPropertyOp27
 70
     1
102
RTVSPropertyOp28
 70
     1
102
RTVSPropertyOp29
 70
     1
102
RTVSPropertyOp30
 70
     1
102
RTVSPropertyOp31
 70
     1
102
RTVSPropertyOp32
 70
     1
  0
XRECORD
  5
44E
102
{ACAD_REACTORS
330
44D
102
}
330
44D
100
AcDbXrecord
280
     1
102
RTVSPropertyOp0
 70
     1
102
RTVSPropertyOp1
 70
     1
102
RTVSPropertyOp2
 70
     1
102
RTVSPropertyOp3
 70
     1
102
RTVSPropertyOp4
 70
     1
102
RTVSPropertyOp5
 70
     1
102
RTVSPropertyOp6
 70
     1
102
RTVSPropertyOp7
 70
     1
102
RTVSPropertyOp8
 70
     1
102
RTVSPropertyOp9
 70
     1
102
RTVSPropertyOp10
 70
     1
102
RTVSPropertyOp11
 70
     1
102
RTVSPropertyOp12
 70
     1
102
RTVSPropertyOp13
 70
     1
102
RTVSPropertyOp14
 70
     1
102
RTVSPropertyOp15
 70
     1
102
RTVSPropertyOp16
 70
     1
102
RTVSPropertyOp17
 70
     1
102
RTVSPropertyOp18
 70
     1
102
RTVSPropertyOp19
 70
     1
102
RTVSPropertyOp20
 70
     1
102
RTVSPropertyOp21
 70
     1
102
RTVSPropertyOp22
 70
     1
102
RTVSPropertyOp23
 70
     1
102
RTVSPropertyOp24
 70
     1
102
RTVSPropertyOp25
 70
     1
102
RTVSPropertyOp26
 70
     1
102
RTVSPropertyOp27
 70
     1
102
RTVSPropertyOp28
 70
     1
102
RTVSPropertyOp29
 70
     1
102
RTVSPropertyOp30
 70
     1
102
RTVSPropertyOp31
 70
     1
102
RTVSPropertyOp32
 70
     1
  0
XRECORD
  5
462
102
{ACAD_REACTORS
330
461
102
}
330
461
100
AcDbXrecord
280
     1
102
RTVSPropertyOp0
 70
     1
102
RTVSPropertyOp1
 70
     1
102
RTVSPropertyOp2
 70
     1
102
RTVSPropertyOp3
 70
     1
102
RTVSPropertyOp4
 70
     1
102
RTVSPropertyOp5
 70
     1
102
RTVSPropertyOp6
 70
     1
102
RTVSPropertyOp7
 70
     1
102
RTVSPropertyOp8
 70
     1
102
RTVSPropertyOp9
 70
     1
102
RTVSPropertyOp10
 70
     1
102
RTVSPropertyOp11
 70
     1
102
RTVSPropertyOp12
 70
     1
102
RTVSPropertyOp13
 70
     1
102
RTVSPropertyOp14
 70
     1
102
RTVSPropertyOp15
 70
     1
102
RTVSPropertyOp16
 70
     1
102
RTVSPropertyOp17
 70
     1
102
RTVSPropertyOp18
 70
     1
102
RTVSPropertyOp19
 70
     1
102
RTVSPropertyOp20
 70
     1
102
RTVSPropertyOp21
 70
     1
102
RTVSPropertyOp22
 70
     1
102
RTVSPropertyOp23
 70
     1
102
RTVSPropertyOp24
 70
     1
102
RTVSPropertyOp25
 70
     1
102
RTVSPropertyOp26
 70
     1
102
RTVSPropertyOp27
 70
     1
102
RTVSPropertyOp28
 70
     1
102
RTVSPropertyOp29
 70
     1
102
RTVSPropertyOp30
 70
     1
102
RTVSPropertyOp31
 70
     1
102
RTVSPropertyOp32
 70
     1
  0
XRECORD
  5
458
102
{ACAD_REACTORS
330
457
102
}
330
457
100
AcDbXrecord
280
     1
102
RTVSPropertyOp0
 70
     1
102
RTVSPropertyOp1
 70
     1
102
RTVSPropertyOp2
 70
     1
102
RTVSPropertyOp3
 70
     1
102
RTVSPropertyOp4
 70
     1
102
RTVSPropertyOp5
 70
     1
102
RTVSPropertyOp6
 70
     1
102
RTVSPropertyOp7
 70
     1
102
RTVSPropertyOp8
 70
     1
102
RTVSPropertyOp9
 70
     1
102
RTVSPropertyOp10
 70
     1
102
RTVSPropertyOp11
 70
     1
102
RTVSPropertyOp12
 70
     1
102
RTVSPropertyOp13
 70
     1
102
RTVSPropertyOp14
 70
     1
102
RTVSPropertyOp15
 70
     1
102
RTVSPropertyOp16
 70
     1
102
RTVSPropertyOp17
 70
     1
102
RTVSPropertyOp18
 70
     1
102
RTVSPropertyOp19
 70
     1
102
RTVSPropertyOp20
 70
     1
102
RTVSPropertyOp21
 70
     1
102
RTVSPropertyOp22
 70
     1
102
RTVSPropertyOp23
 70
     1
102
RTVSPropertyOp24
 70
     1
102
RTVSPropertyOp25
 70
     1
102
RTVSPropertyOp26
 70
     1
102
RTVSPropertyOp27
 70
     1
102
RTVSPropertyOp28
 70
     1
102
RTVSPropertyOp29
 70
     1
102
RTVSPropertyOp30
 70
     1
102
RTVSPropertyOp31
 70
     1
102
RTVSPropertyOp32
 70
     1
  0
XRECORD
  5
460
102
{ACAD_REACTORS
330
45F
102
}
330
45F
100
AcDbXrecord
280
     1
102
RTVSPropertyOp0
 70
     1
102
RTVSPropertyOp1
 70
     1
102
RTVSPropertyOp2
 70
     1
102
RTVSPropertyOp3
 70
     1
102
RTVSPropertyOp4
 70
     1
102
RTVSPropertyOp5
 70
     1
102
RTVSPropertyOp6
 70
     1
102
RTVSPropertyOp7
 70
     1
102
RTVSPropertyOp8
 70
     1
102
RTVSPropertyOp9
 70
     1
102
RTVSPropertyOp10
 70
     1
102
RTVSPropertyOp11
 70
     1
102
RTVSPropertyOp12
 70
     1
102
RTVSPropertyOp13
 70
     1
102
RTVSPropertyOp14
 70
     1
102
RTVSPropertyOp15
 70
     1
102
RTVSPropertyOp16
 70
     1
102
RTVSPropertyOp17
 70
     1
102
RTVSPropertyOp18
 70
     1
102
RTVSPropertyOp19
 70
     1
102
RTVSPropertyOp20
 70
     1
102
RTVSPropertyOp21
 70
     1
102
RTVSPropertyOp22
 70
     1
102
RTVSPropertyOp23
 70
     1
102
RTVSPropertyOp24
 70
     1
102
RTVSPropertyOp25
 70
     1
102
RTVSPropertyOp26
 70
     1
102
RTVSPropertyOp27
 70
     1
102
RTVSPropertyOp28
 70
     1
102
RTVSPropertyOp29
 70
     1
102
RTVSPropertyOp30
 70
     1
102
RTVSPropertyOp31
 70
     1
102
RTVSPropertyOp32
 70
     1
  0
ENDSEC
  0
EOF
